Freddy Kempf - Beethoven: Pathetique, Moonlight & Appassionata (2004) [Official Digital Download 24/88]

Posted By: SERTiL
Freddy Kempf - Beethoven: Pathetique, Moonlight & Appassionata (2004) [Official Digital Download 24/88]

Freddy Kempf - Beethoven: Pathetique, Moonlight & Appassionata (2004)
FLAC (tracks) 24-bit/88.2 kHz | Time - 62:49 minutes | 906 MB
Studio Master, Official Digital Download | Artwork: Digital booklet

The first disc we released with Freddy Kempf playing Beethoven (BIS-CD-1120) was welcomed with great acclaim all over the world. English reviewers called his interpretations "fresh, vibrant readings presented in a fluent eagerly communicative style‚ (Gramophone) and judged that "Kempf's insight into the character of each of these Olympian masterpieces is astonishing and is allied to formidable virtuosity and musicianship" (Sunday Telegraph). Of course the great thing about Beethoven, as with all great music, is that there are no definitive performances. A performance by a musician with the skills, charisma and musical insights of a Freddy Kempf naturally awakens our appetites. Not because they will, perhaps, tell us more about Beethoven or more about Freddy Kempf, but because, if we are lucky, they will communicate insights into life itself; insights that words cannot convey, that paintings cannot depict, that moving images cannot even approach. Music, in the best instance, communicates at a level that other arts cannot reach. So the best compositions, interpreted by contemporary musicians of the highest calibre, are naturally a mouth-watering prospect. Like this new disc!

TRACKLIST

Ludwig van Beethoven (1770-1829)

01 - Piano Sonata No.8 in C minor, Op.13, Pathetique - I. Grave - Allegro di molto e con brio
02 - II. Adagio cantabile.flac
03 - III. Rondo. Allegro
04 - Piano Sonata No.14 in C sharp minor, Op.27 No.2, Moonlight - I. Adagio sostenuto
05 - II. Allegretto
06 - III. Presto agitato
07 - Piano Sonata No.23 in F minor, Appassionata, Op.57 - I. Allegro assai
08 - II. Andante con moto
09 - III. Allegro ma non troppo

foobar2000 1.3.7 / Dynamic Range Meter 1.1.1
log date: 2017-05-17 16:09:43

––––––––––––––––––––––––––––––––––––––––
Analyzed: Freddy Kempf / Beethoven. Sonatas: Pathetique, Moonlight and Appassionata
––––––––––––––––––––––––––––––––––––––––

DR Peak RMS Duration Track
––––––––––––––––––––––––––––––––––––––––
DR16 -1.24 dB -22.39 dB 11:16 01-Piano Sonata No.8 in C minor, Op.13, Pathetique - I. Grave - Allegro di molto e con brio
DR18 -7.09 dB -31.44 dB 6:02 02-Piano Sonata No.8 in C minor, Op.13, Pathetique - II. Adagio cantabile
DR14 -3.53 dB -22.85 dB 4:24 03-Piano Sonata No.8 in C minor, Op.13, Pathetique - III. Rondo. Allegro
DR15 -12.92 dB -34.12 dB 6:46 04-Piano Sonata No.14 in C sharp minor, Op.27 No.2, Moonlight - I. Adagio sostenuto
DR14 -6.93 dB -27.19 dB 1:57 05-Piano Sonata No.14 in C sharp minor, Op.27 No.2, Moonlight - II. Allegretto
DR14 -0.64 dB -19.90 dB 7:08 06-Piano Sonata No.14 in C sharp minor, Op.27 No.2, Moonlight - III. Presto agitato
DR14 -1.53 dB -21.20 dB 10:16 07-Piano Sonata No.23 in F minor, Appassionata, Op.57 - I. Allegro assai
DR16 -1.99 dB -27.55 dB 6:51 08-Piano Sonata No.23 in F minor, Appassionata, Op.57 - II. Andante con moto
DR15 -0.13 dB -19.76 dB 8:14 09-Piano Sonata No.23 in F minor, Appassionata, Op.57 - III. Allegro ma non troppo
––––––––––––––––––––––––––––––––––––––––

Number of tracks: 9
Official DR value: DR15

Samplerate: 88200 Hz
Channels: 2
Bits per sample: 24
Bitrate: 2080 kbps
Codec: FLAC
================================================================================


Freddy Kempf - Beethoven: Pathetique, Moonlight & Appassionata (2004) [Official Digital Download 24/88]


Thanks to the Original customer.