Saleem Ashkar - Beethoven: Piano Sonatas Nos. 6, 23 and 32 (2018) [Official Digital Download 24/96]

Posted By: SERTiL
Saleem Ashkar - Beethoven: Piano Sonatas Nos. 6, 23 and 32 (2018) [Official Digital Download 24/96]

Saleem Ashkar - Beethoven: Piano Sonatas Nos. 6, 23 and 32 (2018)
FLAC (tracks) 24-bit/96 kHz | Time - 69:21 minutes | 910 MB
Studio Master, Official Digital Download | Artwork: Front Cover

Saleem Ashkar's interpretations of Beethoven's masterworks for the piano have been described as smoulderingly romantic, virtuosic yet elegant, and his complete Beethoven sonata cycle project has left audiences around the world in awe.

Tracklist:

Ludwig van Beethoven (1770 - 1827)

01. Piano Sonata No. 6 in F major, Op. 10, No. 2: 1. Allegro
02. Piano Sonata No. 6 in F major, Op. 10, No. 2: 2. Allegretto
03. Piano Sonata No. 6 in F major, Op. 10, No. 2: 3. Presto
04. Piano Sonata No. 23 In F Minor, Op. 57 -"Appassionata": 1. Allegro assai
05. Piano Sonata No. 23 In F Minor, Op. 57 -"Appassionata": 2. Andante con moto
06. Piano Sonata No. 23 In F Minor, Op. 57 -"Appassionata": 3. Allegro ma non troppo
07. Piano Sonata No. 32 in C minor, Op. 111: 1. Maestoso-Allegro con brio ed appassionato
08. Piano Sonata No. 32 in C minor, Op. 111: 2. Arietta (Adagio molto semplice e cantabile)

Personnel:
Saleem Ashkar, piano

foobar2000 1.3.7 / Dynamic Range Meter 1.1.1
log date: 2018-02-02 20:23:15

––––––––––––––––––––––––––––––––––––––––
Analyzed: Saleem Ashkar / Beethoven: Piano Sonatas Nos. 6, 23 and 32
––––––––––––––––––––––––––––––––––––––––

DR Peak RMS Duration Track
––––––––––––––––––––––––––––––––––––––––
DR14 -3.11 dB -21.20 dB 5:42 01-Piano Sonata No. 6 in F major, Op. 10, No. 2: 1. Allegro
DR15 -2.08 dB -26.02 dB 4:49 02-Piano Sonata No. 6 in F major, Op. 10, No. 2: 2. Allegretto
DR13 -2.73 dB -20.23 dB 3:56 03-Piano Sonata No. 6 in F major, Op. 10, No. 2: 3. Presto
DR13 -0.28 dB -19.59 dB 10:37 04-Piano Sonata No. 23 In F Minor, Op. 57 -"Appassionata": 1. Allegro assai
DR15 -3.96 dB -27.69 dB 7:12 05-Piano Sonata No. 23 In F Minor, Op. 57 -"Appassionata": 2. Andante con moto
DR13 -1.75 dB -18.54 dB 8:07 06-Piano Sonata No. 23 In F Minor, Op. 57 -"Appassionata": 3. Allegro ma non troppo
DR13 -2.92 dB -20.76 dB 9:30 07-Piano Sonata No. 32 in C minor, Op. 111: 1. Maestoso-Allegro con brio ed appassionato
DR14 -3.32 dB -23.20 dB 19:32 08-Piano Sonata No. 32 in C minor, Op. 111: 2. Arietta (Adagio molto semplice e cantabile)
––––––––––––––––––––––––––––––––––––––––

Number of tracks: 8
Official DR value: DR14

Samplerate: 96000 Hz
Channels: 2
Bits per sample: 24
Bitrate: 1795 kbps
Codec: FLAC
================================================================================


Thanks to the Original customer.