Francesca Dego & Francesca Leonardi - Beethoven: Violin Sonatas Nos. 6, 7 & 10 (2015) [Official Digital Download 24/96]

Posted By: SERTiL
Francesca Dego & Francesca Leonardi - Beethoven: Violin Sonatas Nos. 6, 7 & 10 (2015) [Official Digital Download 24/96]

Francesca Dego & Francesca Leonardi - Beethoven: Violin Sonatas Nos. 6, 7 & 10 (2015)
FLAC (tracks) 24-bit/96 kHz | Time - 87:53 minutes | 1.47 GB
Studio Master, Official Digital Download | Artwork: Front Cover

Francesca Leonardi has established herself as one of the best young violinists on the international musical scene. Recently signed by Deutsche Grammophon, her debut album with the 24 Paganini Caprices recorded on the ex-Ricci Guarneri del Gesù was released in October 2012 and received high critical acclaim. She is now recording the complete Beethoven violin sonatas, the final volume to be released in Fall 2015. She is also featured guest artist in Italian tenor Vittorio Grigolo's album 'Ave Maria' released by Sony Classical. She is a winner of numerous national and international competitions. In 2008 she was the first Italian female violinist since 1961 to reach the final of the renowned “Paganini Competition” in Genoa and she won the “Enrico Costa” prize for having been the youngest finalist.

Tracklist:

Ludwig van Beethoven (1770-1827)

Sonata for Violin and Piano No.6 in A, Op.30 No.1
1 1. Allegro 08:14
2 2. Adagio 07:12
3 3. Allegretto con variazioni 08:09

Sonata for Violin and Piano No.7 in C minor, Op.30 No.2
4 1. Allegro con brio 07:49
5 2. Adagio cantabile 09:15
6 3. Scherzo (Allegro) 03:29
7 4. Finale (Allegro) 05:16

Sonata for Violin and Piano No.10 in G, Op.96
8 1. Allegro moderato 10:47
9 2. Adagio espressivo 06:04
10 3. Scherzo (Allegro) 02:02
11 4. Poco allegretto 09:06

12 12 Variations on Se vuol ballare from Mozart's Le Nozze di Figaro, WoO 40 10:37

Personnel:
Francesca Dego, violin
Francesca Leonardi, piano

foobar2000 1.3.7 / Dynamic Range Meter 1.1.1
log date: 2018-01-28 19:18:08

––––––––––––––––––––––––––––––––––––––––
Analyzed: Francesca Dego - Francesca Leonardi / Violin Sonatas Nos. 6, 7 & 10
––––––––––––––––––––––––––––––––––––––––

DR Peak RMS Duration Track
––––––––––––––––––––––––––––––––––––––––
DR13 -5.29 dB -23.49 dB 8:14 01-Sonata for Violin and Piano No.6 in A, Op.30 No.1: 1. Allegro
DR15 -8.70 dB -28.38 dB 7:12 02-Sonata for Violin and Piano No.6 in A, Op.30 No.1: 2. Adagio
DR14 -4.69 dB -23.43 dB 8:09 03-Sonata for Violin and Piano No.6 in A, Op.30 No.1: 3. Allegretto con variazioni
DR13 -3.48 dB -21.28 dB 7:49 04-Sonata for Violin and Piano No.7 in C minor, Op.30 No.2: 1. Allegro con brio
DR15 -6.76 dB -27.95 dB 9:15 05-Sonata for Violin and Piano No.7 in C minor, Op.30 No.2: 2. Adagio cantabile
DR14 -4.51 dB -23.25 dB 3:29 06-Sonata for Violin and Piano No.7 in C minor, Op.30 No.2: 3. Scherzo (Allegro)
DR15 -2.39 dB -20.99 dB 5:16 07-Sonata for Violin and Piano No.7 in C minor, Op.30 No.2: 4. Finale (Allegro)
DR15 -2.83 dB -23.76 dB 10:47 08-Sonata for Violin and Piano No.10 in G, Op.96: 1. Allegro moderato
DR14 -8.75 dB -29.65 dB 6:04 09-Sonata for Violin and Piano No.10 in G, Op.96: 2. Adagio espressivo
DR13 -4.26 dB -23.78 dB 2:02 10-Sonata for Violin and Piano No.10 in G, Op.96: 3. Scherzo (Allegro)
DR14 -2.29 dB -21.87 dB 9:06 11-Sonata for Violin and Piano No.10 in G, Op.96: 4. Poco allegretto
DR14 -3.96 dB -24.55 dB 10:37 12-12 Variations on 'Se vuol ballare' from Mozart's 'Le Nozze di Figaro', WoO 40
––––––––––––––––––––––––––––––––––––––––

Number of tracks: 12
Official DR value: DR14

Samplerate: 96000 Hz
Channels: 2
Bits per sample: 24
Bitrate: 2345 kbps
Codec: FLAC
================================================================================


Thanks to the Original customer.