Tassis Christoyannis & Jeff Cohen - Benjamin Godard: Mélodies (2016) [Official Digital Download 24/96]

Posted By: SERTiL
Tassis Christoyannis & Jeff Cohen - Benjamin Godard: Mélodies (2016) [Official Digital Download 24/96]

Tassis Christoyannis & Jeff Cohen - Benjamin Godard: Mélodies (2016)
FLAC (tracks) 24-bit/96 kHz | Time - 71:05 minutes | 1.13 GB
Studio Master, Official Digital Download | Artwork: Digital Booklet

The mélodies of Benjamin Godard (1849-1895) are little-known, and yet, Godard was one of the most prolific composers in the genre. Focusing on opera after the success of his dramatic symphony Le Tasse in 1878, Godard composed several lyric works that overshadowed his 162 published songs. Today, they remain one of the most interesting parts of his catalogue. The pieces selected here by Tassis Christoyannis and Jeff Cohen, most of them recorded for the first time, illustrate the composer's literary sensibilities.

Tracklist:

Benjamin Godard (1849 - 1895)

01. Te souviens-tu de ta promesse ?: Te souviens-tu de ta promesse ?, Op. 19 No. 6
02. Le banc de pierre: Le banc de pierre, Op. 19 No. 7
03. Je ne veux pas d'autres choses: Je ne veux pas d'autres choses, Op. 11 No. 1
04. Dieu, qui sourit et qui donne: Dieu, qui sourit et qui donne, Op. 10 No. 9
05. Jacotte: Jacotte, Op. 10 No. 5
06. Six Fables de La Fontaine: I. La Laitière et le Pot-au-lait
07. Six Fables de La Fontaine: II. La Cigale et la Foumi
08. Six Fables de La Fontaine: III. Le Renard et le Corbeau
09. Six Fables de La Fontaine: IV. Le Coche et la Mouche
10. Six Fables de La Fontaine: V. Le Renard et les Raisins
11. Six Fables de La Fontaine: VI. Le Rat de ville et le Rat des champs
12. L'Invitation au voyage: L'invitation au voyage
13. Pastorales, Op. 29: No. 5 Les Adieux du berger
14. Elle: Elle, Op. 7 No. 10
15. Chanson du berger: Chanson du berger, Op. 11 No. 5
16. Nouvelles Chansons du vieux temps: I. Suis-je belle ?
17. Nouvelles Chansons du vieux temps: II. Printemps
18. Nouvelles Chansons du vieux temps: III. Menuet
19. Nouvelles Chansons du vieux temps: IV. Chanson de Malherbe
20. Nouvelles Chansons du vieux temps: V. Vaudeville
21. Nouvelles Chansons du vieux temps: VI. J'ai perdu ma tourterelle
22. Printemps: Printemps, Op. 113
23. Guitare: Guitare, Op. 10 No. 11
24. Chanson: Chanson, Op. 7 No. 4
25. Le Ménétrier: Le Ménétrier, Op. 10 No. 6
26. Message: Message, Op. 147 No. 1

Personnel:
Tassis Christoyannis, baritone
Jeff Cohen, piano

foobar2000 1.3.7 / Dynamic Range Meter 1.1.1
log date: 2018-04-17 18:21:49

––––––––––––––––––––––––––––––––––––––––
Analyzed: Tassis Christoyannis, Jeff Cohen / Benjamin Godard: Mélodies
––––––––––––––––––––––––––––––––––––––––

DR Peak RMS Duration Track
––––––––––––––––––––––––––––––––––––––––
DR11 -1.13 dB -18.53 dB 1:53 01-Te souviens-tu de ta promesse ?: Te souviens-tu de ta promesse ?, Op. 19 No. 6
DR13 -0.11 dB -18.65 dB 4:47 02-Le banc de pierre: Le banc de pierre, Op. 19 No. 7
DR12 -0.11 dB -18.78 dB 3:26 03-Je ne veux pas d'autres choses: Je ne veux pas d'autres choses, Op. 11 No. 1
DR12 -1.92 dB -20.29 dB 1:21 04-Dieu, qui sourit et qui donne: Dieu, qui sourit et qui donne, Op. 10 No. 9
DR12 -0.38 dB -19.01 dB 3:41 05-Jacotte: Jacotte, Op. 10 No. 5
DR13 -0.11 dB -18.33 dB 3:42 06-Six Fables de La Fontaine: I. La Laitière et le Pot-au-lait
DR13 -0.12 dB -18.19 dB 2:00 07-Six Fables de La Fontaine: II. La Cigale et la Foumi
DR13 -0.11 dB -17.31 dB 2:05 08-Six Fables de La Fontaine: III. Le Renard et le Corbeau
DR12 -0.11 dB -16.58 dB 4:29 09-Six Fables de La Fontaine: IV. Le Coche et la Mouche
DR14 -0.11 dB -18.90 dB 1:23 10-Six Fables de La Fontaine: V. Le Renard et les Raisins
DR13 -0.11 dB -17.86 dB 1:57 11-Six Fables de La Fontaine: VI. Le Rat de ville et le Rat des champs
DR12 -0.11 dB -18.38 dB 4:21 12-L'Invitation au voyage: L'invitation au voyage
DR13 -0.11 dB -18.70 dB 4:21 13-Pastorales, Op. 29: No. 5 Les Adieux du berger
DR12 -0.11 dB -18.19 dB 3:35 14-Elle: Elle, Op. 7 No. 10
DR12 -0.11 dB -18.24 dB 1:43 15-Chanson du berger: Chanson du berger, Op. 11 No. 5
DR14 -0.53 dB -19.62 dB 2:49 16-Nouvelles Chansons du vieux temps: I. Suis-je belle ?
DR12 -0.29 dB -17.04 dB 1:49 17-Nouvelles Chansons du vieux temps: II. Printemps
DR13 -0.11 dB -17.54 dB 2:03 18-Nouvelles Chansons du vieux temps: III. Menuet
DR12 -0.11 dB -17.46 dB 2:24 19-Nouvelles Chansons du vieux temps: IV. Chanson de Malherbe
DR11 -0.11 dB -17.35 dB 2:25 20-Nouvelles Chansons du vieux temps: V. Vaudeville
DR11 -2.01 dB -20.02 dB 3:09 21-Nouvelles Chansons du vieux temps: VI. J'ai perdu ma tourterelle
DR10 -1.12 dB -15.77 dB 1:33 22-Printemps: Printemps, Op. 113
DR13 -5.30 dB -23.38 dB 2:51 23-Guitare: Guitare, Op. 10 No. 11
DR13 -0.11 dB -18.68 dB 3:31 24-Chanson: Chanson, Op. 7 No. 4
DR12 -1.23 dB -17.50 dB 2:19 25-Le Ménétrier: Le Ménétrier, Op. 10 No. 6
DR12 -0.11 dB -18.66 dB 1:42 26-Message: Message, Op. 147 No. 1
––––––––––––––––––––––––––––––––––––––––

Number of tracks: 26
Official DR value: DR12

Samplerate: 96000 Hz
Channels: 2
Bits per sample: 24
Bitrate: 2160 kbps
Codec: FLAC
================================================================================


Thanks to the Original customer.