Tags
Language
Tags

Berliner Philharmoniker & Yannick Nézet-Séguin - Mahler - Symphony No. 4 (2021) [Official Digital Download]

Posted By: pyatak
Berliner Philharmoniker & Yannick Nézet-Séguin - Mahler - Symphony No. 4 (2021) [Official Digital Download]

Berliner Philharmoniker & Yannick Nézet-Séguin - Mahler - Symphony No. 4 (2021) [Official Digital Download]
FLAC (tracks) 24-bit/48 kHz | Front Cover | Time - 58:41 minutes | 555 MB
Classical | Label: Berlin Philharmonic Orchestra, Official Digital Download

Mahler's Symphony No 4 conducted by Yannick is part of the magnificent MAHLER box set recently released by the Berliner Philharmoniker.

Indeed, to mark its last ten years as well as its Mahler tradition, the Berlin Philharmonic Orchestra has just released a set of the complete MAHLER on its prestigious house label: the composer's 10 symphonies were engraved by eight conductors, on 10 CDs. In turn, we can hear the interpretations of Claudio Abbado, Gustavo Dudamel, Bernard Haitink, Daniel Harding, Andris Nelsons, Yannick Nézet-Séguin, Kirill Petrenko and Sir Simon Rattle. Symphony No. 4 was recorded in March 2014, during one of Yannick’s many appearances at the Berlin Philharmonic.

TRACKLIST

01. Berliner Philharmoniker & Yannick Nézet-Séguin - Mahler: Symphony No. 4: I. Bedächtig. Nicht Eilen
02. Berliner Philharmoniker & Yannick Nézet-Séguin - Mahler: Symphony No. 4: II. In gemächlicher Bewegung. Ohne Hast
03. Berliner Philharmoniker & Yannick Nézet-Séguin - Mahler: Symphony No. 4: III. Ruhevoll (Poco adagio)
04. Berliner Philharmoniker & Yannick Nézet-Séguin - Mahler: Symphony No. 4: IV. Sehr behaglich

foobar2000 1.6.2 / Dynamic Range Meter 1.1.1
log date: 2021-07-27 20:40:33

––––––––––––––––––––––––––––––––––––––––
Analyzed: Berliner Philharmoniker & Yannick Nézet-Séguin / Mahler: Symphony No. 4
––––––––––––––––––––––––––––––––––––––––

DR Peak RMS Duration Track
––––––––––––––––––––––––––––––––––––––––
DR14 -0.57 dB -20.28 dB 17:01 01-Mahler: Symphony No. 4: I. Bedächtig. Nicht Eilen
DR17 -4.10 dB -27.12 dB 9:55 02-Mahler: Symphony No. 4: II. In gemächlicher Bewegung. Ohne Hast
DR14 -0.40 dB -21.38 dB 22:19 03-Mahler: Symphony No. 4: III. Ruhevoll (Poco adagio)
DR16 -1.37 dB -23.89 dB 9:26 04-Mahler: Symphony No. 4: IV. Sehr behaglich
––––––––––––––––––––––––––––––––––––––––

Number of tracks: 4
Official DR value: DR15

Samplerate: 48000 Hz
Channels: 2
Bits per sample: 24
Bitrate: 1280 kbps
Codec: FLAC
================================================================================



Thanks to the Original customer.