Johnny Mathis - Better Together: The Duet Album (1991) [Official Digital Download 24/96]

Posted By: SERTiL
Johnny Mathis - Better Together: The Duet Album (1991) [Official Digital Download 24/96]

Johnny Mathis - Better Together: The Duet Album (1991)
FLAC (tracks) 24-bit/96 kHz | Time - 39:18 minutes | 811 MB
Studio Master, Official Digital Download | Artwork: Front Cover

Includes Mathis's romantic duets with Regina Belle, Patti Austin, Deniece Williams, Take 6, Angela Bofill, Jane Olivor, Dionne Warwick. Aside from the million-selling duet, "Too Much Too Little Too Late" with Williams, the album also includes their stellar reunion on Major Harris's "Love Won't Let Me Wait." Also featured is the unheralded masterpiece, "You Brought Me Love" with Austin. AllMusic Review by Bil Carpenter

Tracklist:
1. Better Together - Johnny Mathis; Regina Belle
2. You Brought Me Love - Johnny Mathis; Patti Austin
3. Too Much, Too Little, Too Late - Johnny Mathis; Deniece Williams
4. It's All in the Game - Johnny Mathis; Take 6
5. Love Won't Let Me Wait - Johnny Mathis; Deniece Williams
6. You're a Special Part of Me - Johnny Mathis; Angela Bofill
7. The Last Time I Felt Like This - Johnny Mathis; Jane Olivor
8. Friends in Love - Johnny Mathis; Dionne Warwick
9. In the Still of the Night - Johnny Mathis; Take 6
10. You're All I Need to Get By - Johnny Mathis; Deniece Williams
11. Who's Counting Heartaches - Johnny Mathis; Dionne Warwick

foobar2000 1.3.7 / Dynamic Range Meter 1.1.1
log date: 2018-01-21 19:05:24

––––––––––––––––––––––––––––––––––––––––
Analyzed: Johnny Mathis duet with Jane Olivor / Better Together: The Duet Album (1)
Johnny Mathis duet with Patti Austin / Better Together: The Duet Album (2)
Johnny Mathis feat. Deniece Williams / Better Together: The Duet Album (3-4)
Johnny Mathis with Deniece Williams / Better Together: The Duet Album (5)
Johnny Mathis with Dionne Warwick / Better Together: The Duet Album (6-7)
Johnny Mathis with Take 6 / Better Together: The Duet Album (8-9)
Johnny Mathis;Angela Bofill / Better Together: The Duet Album (10)
Regina Belle / Better Together: The Duet Album (11)
––––––––––––––––––––––––––––––––––––––––

DR Peak RMS Duration Track
––––––––––––––––––––––––––––––––––––––––
DR10 -0.02 dB -12.59 dB 2:57 07-The Last Time I Felt Like This
DR9 -0.02 dB -12.04 dB 4:07 02-You Brought Me Love
DR11 -0.02 dB -13.68 dB 4:17 05-Love Won't Let Me Wait
DR10 -0.02 dB -12.41 dB 2:40 10-You're All I Need to Get By
DR9 -0.02 dB -11.44 dB 2:56 03-Too Much, Too Little, Too Late
DR10 -0.02 dB -13.76 dB 4:05 08-Friends of Love
DR10 -0.02 dB -13.48 dB 4:21 11-Who's Counting Heartaches
DR11 -0.02 dB -13.03 dB 2:34 04-It's All In the Game
DR11 -0.02 dB -13.59 dB 2:40 09-In the Still of the Night
DR10 -0.02 dB -12.31 dB 4:12 06-You're a Special Part of Me
DR9 -0.02 dB -11.96 dB 4:35 01-Better Together
––––––––––––––––––––––––––––––––––––––––

Number of tracks: 11
Official DR value: DR10

Samplerate: 96000 Hz
Channels: 2
Bits per sample: 24
Bitrate: 2962 kbps
Codec: FLAC
================================================================================


Thanks to the Original customer.