Billy Joel - Piano Man: The Very Best of Billy Joel (2004/2006) [Official Digital Download 24/96]

Posted By: Pisulik
Billy Joel - Piano Man: The Very Best of Billy Joel (2004/2006) [Official Digital Download 24/96]

Billy Joel - Piano Man: The Very Best of Billy Joel (2004/2006)
FLAC (tracks) 24-bit/96 kHz | Time - 79:52 minutes | 1,69 GB
Studio Master, Official Digital Download | Artwork: Front cover

Having sold more than 100 million records over the past quarter of a century, Billy Joel ranks as one of most popular recording artists and respected entertainers in the world. In the US he has had 33 Top 40 hits and 23 Grammy nominations since signing his first solo recording contract in 1972. In the UK he has had 14 top 40 hits including the number one hit “Uptown Girl” as well as the original version of “She’s Always a Woman”. In addition to his multiple awards, including Grammys and American Music Awards, his contribution to the industry saw him inducted into the Rock and Roll Hall of Fame in 1999, and in 2005 he was given a star on the Hollywood Walk of Fame. Piano Man brings all of Billy Joel’s best loved hits together on one disc.

Tracklist:

01. Tell Her About It
02. Uptown Girl
03. Piano Man (Radio Edit)
04. New York State of Mind
05. The River of Dreams
06. It's Still Rock and Roll to Me
07. We Didn't Start the Fire
08. Goodnight Saigon
09. My Life
10. She's Always a Woman
11. She's Got a Way (Live)
12. Scenes from an Italian Restaurant
13. An Innocent Man
14. Movin' Out (Anthony's Song)
15. Only the Good Die Young (Single Version)
16. All About Soul (Radio Edit)
17. Honesty
18. Just the Way You Are (Radio Edit)

foobar2000 1.3.7 / Dynamic Range Meter 1.1.1
log date: 2018-04-11 08:22:05

––––––––––––––––––––––––––––––––––––––––
Analyzed: Billy Joel / Piano Man: The Very Best of Billy Joel
––––––––––––––––––––––––––––––––––––––––

DR Peak RMS Duration Track
––––––––––––––––––––––––––––––––––––––––
DR8 -0.17 dB -8.91 dB 3:51 01-Tell Her About It
DR7 -0.89 dB -8.86 dB 3:16 02-Uptown Girl
DR8 -0.20 dB -10.56 dB 4:35 03-Piano Man (Radio Edit)
DR10 -0.50 dB -14.50 dB 6:01 04-New York State of Mind
DR8 -0.18 dB -10.21 dB 4:06 05-The River of Dreams
DR7 -0.90 dB -10.03 dB 2:58 06-It's Still Rock and Roll to Me
DR6 -1.94 dB -10.25 dB 4:50 07-We Didn't Start the Fire
DR9 -0.66 dB -14.77 dB 7:07 08-Goodnight Saigon
DR9 -0.57 dB -11.74 dB 4:43 09-My Life
DR9 -0.02 dB -10.58 dB 3:22 10-She's Always a Woman
DR11 -0.08 dB -14.23 dB 3:01 11-She's Got a Way (Live)
DR9 -0.02 dB -10.74 dB 7:36 12-Scenes from an Italian Restaurant
DR8 -1.87 dB -12.45 dB 5:22 13-An Innocent Man
DR7 -2.10 dB -11.15 dB 3:30 14-Movin' Out (Anthony's Song)
DR9 -0.38 dB -10.96 dB 3:56 15-Only the Good Die Young (Single Version)
DR8 -0.30 dB -10.10 dB 4:18 16-All About Soul (Radio Edit)
DR9 -0.50 dB -12.11 dB 3:51 17-Honesty
DR10 -0.02 dB -13.25 dB 3:36 18-Just the Way You Are (Radio Edit)
––––––––––––––––––––––––––––––––––––––––

Number of tracks: 18
Official DR value: DR8

Samplerate: 96000 Hz
Channels: 2
Bits per sample: 24
Bitrate: 2833 kbps
Codec: FLAC
================================================================================


All thanks go to the original releaser