Bing Crosby - Bing & Satchmo! (1960/2020) [Official Digital Download 24/96]

Posted By: pyatak
Bing Crosby - Bing & Satchmo! (1960/2020) [Official Digital Download 24/96]

Bing Crosby - Bing & Satchmo! (1960/2020) [Official Digital Download 24/96]
FLAC (tracks) 24-bit/96 kHz | Front Cover | Time - 70:59 minutes | 1,16 GB
Vocal Jazz | Label: RevOla, Official Digital Download

Bing & Satchmo is a 1960 studio album by Bing Crosby and Louis Armstrong that was arranged and conducted by Billy May. The album was recorded for Crosby's label, Project Records, and released by MGM.

Crosby and Armstrong worked together many times before they recorded this album, appearing in films such as Pennies from Heaven (1936), Here Comes the Groom (1951), and High Society (1956). They made several radio broadcasts together between 1949 and 1951.

The lyrics of the songs were adapted for them by a number of notable songwriters.

Eleven tracks were issued on the LP, excluding "(Up A) Lazy River" because Armstrong had recorded it for another company. Permission was granted for it to be included in the All Star Festival LP issued in 1963 on behalf of the United Nations to help refugees around the world. Johnny Mercer sings a few lines with the chorus on this track.

"Dardanella" and "Muskrat Ramble" were released as singles in October 1960. Billboard magazine commented that the tracks would be popular with "jocks".

TRACKLIST

1. Bing Crosby - Muskrat Ramble (Remastered)
2. Bing Crosby - Sugar (Remastered)
3. Bing Crosby - Preacher (Remastered)
4. Bing Crosby - Dardanella (Remastered)
5. Bing Crosby - Let's Sing Like A Dixielend Band (Remastered)
6. Bing Crosby - Way Down Yonder In New Orleans (Remastered)
7. Bing Crosby - Brother Bill (Remastered)
8. Bing Crosby - Little Ol' Tune (Remastered)
9. Bing Crosby - At My Jazz Band Ball (Remastered)
10. Bing Crosby - Rocky Mountain Moon (Remastered)
11. Bing Crosby - Bye Bye Blues (Remastered)
12. Bing Crosby - Pennies From Heaven (Remastered)
13. Bing Crosby - Gone Fishing! (Remastered)
14. Bing Crosby - Little One (Remastered)
15. Bing Crosby - I Love You, Samantha (Remastered)
16. Bing Crosby - Now You Has Jazz (Remastered)
17. Bing Crosby - That's A Plenty! (Remastered)
18. Bing Crosby - Burbon Street Parade (Remastered)
19. Bing Crosby - New Orleans (Remastered)
20. Bing Crosby - Sheik Of Araby (Remastered)
21. Bing Crosby - Mademoiselle De Paris (Remastered)
22. Bing Crosby - Only You (Remastered)
23. Bing Crosby - Under Paris Skies (Remastered)

foobar2000 1.6.2 / Dynamic Range Meter 1.1.1
log date: 2020-12-30 21:53:05

––––––––––––––––––––––––––––––––––––––––
Analyzed: Bing Crosby / Bing & Satchmo!
––––––––––––––––––––––––––––––––––––––––

DR Peak RMS Duration Track
––––––––––––––––––––––––––––––––––––––––
DR11 0.00 dB -13.23 dB 3:01 01-Muskrat Ramble (Remastered)
DR12 0.00 dB -14.19 dB 5:10 02-Sugar (Remastered)
DR11 0.00 dB -13.31 dB 2:20 03-Preacher (Remastered)
DR12 -0.62 dB -15.18 dB 2:50 04-Dardanella (Remastered)
DR12 -0.07 dB -14.08 dB 2:23 05-Let's Sing Like A Dixielend Band (Remastered)
DR12 0.00 dB -12.87 dB 3:06 06-Way Down Yonder In New Orleans (Remastered)
DR11 0.00 dB -12.86 dB 2:58 07-Brother Bill (Remastered)
DR12 0.00 dB -14.40 dB 3:05 08-Little Ol' Tune (Remastered)
DR12 0.00 dB -13.17 dB 3:02 09-At My Jazz Band Ball (Remastered)
DR11 0.00 dB -13.35 dB 3:42 10-Rocky Mountain Moon (Remastered)
DR11 -0.52 dB -14.60 dB 3:47 11-Bye Bye Blues (Remastered)
DR11 -1.00 dB -13.96 dB 2:59 12-Pennies From Heaven (Remastered)
DR12 0.00 dB -16.02 dB 2:30 13-Gone Fishing! (Remastered)
DR14 0.00 dB -16.81 dB 2:30 14-Little One (Remastered)
DR12 0.00 dB -14.87 dB 3:09 15-I Love You, Samantha (Remastered)
DR11 -0.33 dB -14.55 dB 4:14 16-Now You Has Jazz (Remastered)
DR12 -0.49 dB -14.56 dB 2:21 17-That's A Plenty! (Remastered)
DR12 -1.28 dB -14.99 dB 3:15 18-Burbon Street Parade (Remastered)
DR11 -0.37 dB -14.99 dB 3:10 19-New Orleans (Remastered)
DR11 -0.13 dB -15.24 dB 3:33 20-Sheik Of Araby (Remastered)
DR11 -0.46 dB -14.78 dB 2:28 21-Mademoiselle De Paris (Remastered)
DR13 -0.04 dB -16.66 dB 3:12 22-Only You (Remastered)
DR11 -0.98 dB -14.25 dB 2:24 23-Under Paris Skies (Remastered)
––––––––––––––––––––––––––––––––––––––––

Number of tracks: 23
Official DR value: DR12

Samplerate: 96000 Hz
Channels: 2
Bits per sample: 24
Bitrate: 2650 kbps
Codec: FLAC
================================================================================



Thanks to the Original customer.