Black Sabbath - Sabotage (1975/2021) [Official Digital Download 24/96]

Posted By: pyatak
Black Sabbath - Sabotage (1975/2021) [Official Digital Download 24/96]

Black Sabbath - Sabotage (1975/2021) [Official Digital Download 24/96]
FLAC (tracks) 24-bit/44.1 kHz | Front Cover | Time - 43:41 minutes | 968 MB
Hard Rock | Label: Rhino - Warner Records, Official Digital Download

Sabotage is the sixth studio album by English rock band Black Sabbath, released in July 1975. It was recorded in the midst of litigation with their former manager Patrick Meehan. The stress that resulted from the band's ongoing legal woes infiltrated the recording process, inspiring the album's title. It was co-produced by guitarist Tony Iommi and Mike Butcher.

TRACKLIST

01. Hole In The Sky (3:59)
02. Don't Start (Too Late) (0:49)
03. Symptom Of The Universe (6:29)
04. Megalomania (9:42)
05. Thrill of It All (5:55)
06. Supertzar (3:44)
07. Am I Going Insane (Radio) (4:16)
08. The Writ (8:45)

[foobar2000 1.6.2 / Dynamic Range Meter 1.1.1
log date: 2021-06-10 14:27:34

––––––––––––––––––––––––––––––––––––––––
Analyzed: Black Sabbath / Sabotage (2021 Remaster)
––––––––––––––––––––––––––––––––––––––––

DR Peak RMS Duration Track
––––––––––––––––––––––––––––––––––––––––
DR9 -0.26 dB -10.65 dB 3:59 01-Hole In The Sky
DR11 -12.55 dB -24.92 dB 0:49 02-Don't Start (Too Late)
DR9 -0.26 dB -11.62 dB 6:29 03-Symptom Of The Universe
DR9 -0.26 dB -11.58 dB 9:42 04-Megalomania
DR10 -0.26 dB -11.57 dB 5:55 05-Thrill of It All
DR9 -1.04 dB -12.44 dB 3:44 06-Supertzar
DR10 -0.26 dB -11.16 dB 4:16 07-Am I Going Insane (Radio)
DR11 -0.26 dB -13.58 dB 8:45 08-The Writ
––––––––––––––––––––––––––––––––––––––––

Number of tracks: 8
Official DR value: DR10

Samplerate: 96000 Hz
Channels: 2
Bits per sample: 24
Bitrate: 2981 kbps
Codec: FLAC
================================================================================

/hide]

Thanks to the Original customer.