Tags
Language
Tags

Blackmore's Night - Winter Carols (Deluxe Edition) (2021) [Official Digital Download]

Posted By: pyatak
Blackmore's Night - Winter Carols (Deluxe Edition) (2021) [Official Digital Download]

Blackmore's Night - Winter Carols (Deluxe Edition) (2021) [Official Digital Download]
FLAC (tracks) 24-bit/48 kHz | Front Cover | Time -97:15 minutes | 1,18 GB
Pop, X-Mas | Label: earMUSIC, Official Digital Download

Ever wonder what Christmas carols sounded like back in time when the finest form of transportation was by horse and wearing armor was a hip fashion statement? Well then, the second release of 2006 by Blackmore's Night, Winter Carols, may offer some insight. As with their previous efforts, the music on Winter Carols is of the Renaissance-inspired folk variety. And while the majority of the songs are traditional compositions, there are also a few originals, including "Winter (Basse Dance)," which includes some simply gorgeous acoustic guitar doodling by once Fender Strat/Marshall amp abuser Blackmore. Elsewhere, songs such as "Hark the Herald Angels Sing/Come All Ye Faithful" and "We Wish You a Merry Christmas" would sound splendid sung around the campfire – if it were still the 15th century. Unfortunately, a rendition of the Chipmunks' "The Chipmunk Song (Christmas Don't Be Late)" is not included.

TRACKLIST

1. Blackmore's Night - Coventry Carol
2. Blackmore's Night - Deck the Halls (Remastered)
3. Blackmore's Night - God Rest Ye Merry Gentlemen (Remastered)
4. Blackmore's Night - O Christmas Tree (Remastered)
5. Blackmore's Night - Hark! the Herald Angels Sing/O Come All Ye Faithful (Remastered)
6. Blackmore's Night - I Saw Three Ships (Remastered)
7. Blackmore's Night - Winter (Basse Dance) (Remastered)
8. Blackmore's Night - Ding Dong Merrily on High (Remastered)
9. Blackmore's Night - Ma-O-Tzur (Remastered)
10. Blackmore's Night - Good King Wenceslas (Remastered)
11. Blackmore's Night - Simple Gifts (Lord of the Dance) (Remastered)
12. Blackmore's Night - We Three Kings (Remastered)
13. Blackmore's Night - Wish You Were Here (2021) (Remastered)
14. Blackmore's Night - Emmanuel (Remastered)
15. Blackmore's Night - Christmas Eve (Remastered)
16. Blackmore's Night - We Wish You a Merry Christmas (Remastered)
17. Blackmore's Night - Crowning of the King (Remastered)
18. Blackmore's Night - Here We Come A-Caroling (Remastered)
19. Blackmore's Night - It Came Upon a Midnight Clear (Remastered)
20. Blackmore's Night - O Little Town of Bethlehem (Remastered)
21. Blackmore's Night - Silent Night (Remastered)
22. Blackmore's Night - Christmas Eve (2013 Version) (Remastered)
23. Blackmore's Night - Hark! the Herald Angels Sing / O Come All Ye Faithful (Live from Minstrel Hall) (Remastered)
24. Blackmore's Night - Emmanuel (Live from Minstrel Hall) (Remastered)
25. Blackmore's Night - We Three Kings (Live from Minstrel Hall) (Remastered)
26. Blackmore's Night - Ma-O-Tzur (Live from Minstrel Hall) (Remastered)
27. Blackmore's Night - Good King Wenceslas (Live from Minstrel Hall) (Remastered)

foobar2000 1.6.2 / Dynamic Range Meter 1.1.1
log date: 2021-11-18 13:49:22

––––––––––––––––––––––––––––––––––––––––
Analyzed: Blackmore's Night / Winter Carols (Deluxe Edition)
––––––––––––––––––––––––––––––––––––––––

DR Peak RMS Duration Track
––––––––––––––––––––––––––––––––––––––––
DR10 0.00 dB -11.89 dB 3:07 01-Coventry Carol
DR8 0.00 dB -9.71 dB 2:45 02-Deck the Halls (Remastered)
DR8 0.00 dB -10.59 dB 4:33 03-God Rest Ye Merry Gentlemen (Remastered)
DR8 0.00 dB -10.63 dB 4:55 04-O Christmas Tree (Remastered)
DR6 -0.21 dB -8.87 dB 3:48 05-Hark! the Herald Angels Sing/O Come All Ye Faithful (Remastered)
DR8 0.00 dB -9.97 dB 2:37 06-I Saw Three Ships (Remastered)
DR8 0.00 dB -10.44 dB 3:06 07-Winter (Basse Dance) (Remastered)
DR6 0.00 dB -8.50 dB 3:12 08-Ding Dong Merrily on High (Remastered)
DR8 0.00 dB -11.23 dB 2:16 09-Ma-O-Tzur (Remastered)
DR7 0.00 dB -10.20 dB 4:43 10-Good King Wenceslas (Remastered)
DR8 0.00 dB -10.23 dB 3:31 11-Simple Gifts (Lord of the Dance) (Remastered)
DR7 0.00 dB -9.55 dB 4:44 12-We Three Kings (Remastered)
DR7 0.00 dB -8.51 dB 5:04 13-Wish You Were Here (2021) (Remastered)
DR8 0.00 dB -9.71 dB 3:30 14-Emmanuel (Remastered)
DR8 0.00 dB -9.72 dB 4:14 15-Christmas Eve (Remastered)
DR7 0.00 dB -9.21 dB 1:21 16-We Wish You a Merry Christmas (Remastered)
DR7 0.00 dB -9.58 dB 4:27 17-Crowning of the King (Remastered)
DR6 0.00 dB -7.70 dB 2:19 18-Here We Come A-Caroling (Remastered)
DR8 0.00 dB -10.30 dB 1:57 19-It Came Upon a Midnight Clear (Remastered)
DR8 -0.08 dB -9.15 dB 3:13 20-O Little Town of Bethlehem (Remastered)
DR8 0.00 dB -10.65 dB 2:37 21-Silent Night (Remastered)
DR6 0.00 dB -7.55 dB 4:34 22-Christmas Eve (2013 Version) (Remastered)
DR7 0.00 dB -8.91 dB 3:47 23-Hark! the Herald Angels Sing / O Come All Ye Faithful (Live from Minstrel Hall) (Remastered)
DR8 0.00 dB -10.83 dB 4:31 24-Emmanuel (Live from Minstrel Hall) (Remastered)
DR7 0.00 dB -9.61 dB 5:10 25-We Three Kings (Live from Minstrel Hall) (Remastered)
DR12 0.00 dB -15.68 dB 1:53 26-Ma-O-Tzur (Live from Minstrel Hall) (Remastered)
DR8 0.00 dB -12.18 dB 5:35 27-Good King Wenceslas (Live from Minstrel Hall) (Remastered)
––––––––––––––––––––––––––––––––––––––––

Number of tracks: 27
Official DR value: DR8

Samplerate: 48000 Hz
Channels: 2
Bits per sample: 24
Bitrate: 1635 kbps
Codec: FLAC
================================================================================



Thanks to the Original customer.