Bob Dylan - The Rolling Thunder Revue- The 1975 Live Recordings (Remastered Sampler) (2019) [Official Digital Download 24/96]

Posted By: pyatak
Bob Dylan - The Rolling Thunder Revue- The 1975 Live Recordings (Remastered Sampler) (2019) [Official Digital Download 24/96]

Bob Dylan - The Rolling Thunder Revue- The 1975 Live Recordings (Remastered Sampler) (2019) [Official Digital Download 24/96]
FLAC (tracks) 24-bit/96 kHz | Front Cover | Time - 47:40 minutes | 841 MB
Rock | Label: Columbia/Legacy, Official Digital Download

"A comprehensive anthology of music from the mythic first leg of Bob Dylan's groundbreaking Rolling Thunder Revue. The collection also provides the listener with an intimate insider's seat for recently unearthed rehearsals at New York's S.I.R. studios and the Seacrest Mote in Falmouth, MA plus a bonus disc showcasing one-of-a-kind performances from the tour. Bob Dylan – The Rolling Thunder Revue: The 1975 Live Recordings serves as a companion piece to the new film, ""Rolling Thunder Revue – A Bob Dylan Story by Martin Scorsese,"" premiering on Netflix on June 12.

TRACKLIST

1. Bob Dylan - Tonight I'll be Staying Here With You (S.I.R. Studio Rehearsals)
2. Bob Dylan - If You See Her, Say Hello (S.I.R. Studio Rehearsals)
3. Bob Dylan - Easy and Slow (Seacrest Motel Rehearsals)
4. Bob Dylan - A Hard Rain's A-Gonna Fall (Live at Montreal Forum, Montreal, Quebec - December 1975)
5. Bob Dylan - It Ain't Me, Babe (Live at Boston Music Hall, Boston, MA - November 21, 1975 - Evening)
6. Bob Dylan - The Lonesome Death of Hattie Carroll (Live at Montreal Forum, Montreal, Quebec - December 1975)
7. Bob Dylan - I Dreamed I Saw St. Augustine (Live at Montreal Forum, Montreal, Quebec - December 1975)
8. Bob Dylan - Isis (Live at Montreal Forum, Montreal, Quebec - December 1975)
9. Bob Dylan - Romance In Durango (Live at Boston Music Hall, Boston, MA - November 21, 1975 - Afternoon)
10. Bob Dylan - Hurricane (Live at Boston Music Hall, Boston, MA - November 21, 1975 - Evening)

foobar2000 1.3.16 / Dynamic Range Meter 1.1.1
log date: 2019-10-10 05:46:34

––––––––––––––––––––––––––––––––––––––––
Analyzed: Bob Dylan / The Rolling Thunder Revue: The 1975 Live Recordings (Remastered Sampler)
––––––––––––––––––––––––––––––––––––––––

DR Peak RMS Duration Track
––––––––––––––––––––––––––––––––––––––––
DR12 -0.46 dB -16.72 dB 2:59 01-Tonight I'll be Staying Here With You (S.I.R. Studio Rehearsals)
DR14 -0.73 dB -19.38 dB 2:56 02-If You See Her, Say Hello (S.I.R. Studio Rehearsals)
DR13 -3.92 dB -22.14 dB 5:23 03-Easy and Slow (Seacrest Motel Rehearsals)
DR11 -0.39 dB -12.91 dB 5:13 04-A Hard Rain's A-Gonna Fall (Live at Montreal Forum, Montreal, Quebec - December 1975)
DR11 -1.51 dB -15.85 dB 5:06 05-It Ain't Me, Babe (Live at Boston Music Hall, Boston, MA - November 21, 1975 - Evening)
DR12 -1.01 dB -16.03 dB 5:18 06-The Lonesome Death of Hattie Carroll (Live at Montreal Forum, Montreal, Quebec - December 1975)
DR13 -0.36 dB -16.19 dB 2:58 07-I Dreamed I Saw St. Augustine (Live at Montreal Forum, Montreal, Quebec - December 1975)
DR12 -0.51 dB -14.53 dB 5:14 08-Isis (Live at Montreal Forum, Montreal, Quebec - December 1975)
DR12 -2.20 dB -16.75 dB 4:36 09-Romance In Durango (Live at Boston Music Hall, Boston, MA - November 21, 1975 - Afternoon)
DR12 -3.26 dB -17.55 dB 8:00 10-Hurricane (Live at Boston Music Hall, Boston, MA - November 21, 1975 - Evening)
––––––––––––––––––––––––––––––––––––––––

Number of tracks: 10
Official DR value: DR12

Samplerate: 96000 Hz
Channels: 2
Bits per sample: 24
Bitrate: 2744 kbps
Codec: FLAC
================================================================================



Thanks to the Original customer.