Tags
Language
Tags

Boston - Walk On (1994/2021) [Official Digital Download 24/192]

Posted By: pyatak
Boston - Walk On (1994/2021) [Official Digital Download 24/192]

Boston - Walk On (1994/2021) [Official Digital Download 24/192]
FLAC (tracks) 24-bit/192 kHz | Front Cover | Time - 44:21 minutes | 1,85 GB
Hard Rock | Label: Geffen Records, Official Digital Download

Walk On is the fourth studio album by American hard rock band Boston, released on June 7, 1994 by MCA Records. It is the first album not to feature vocalist Brad Delp, though he did assist in the writing. Vocal duties were handled by Fran Cosmo, making this his first appearance on a Boston album. Delp and Cosmo shared leads during the album's supporting tour and the album’s follow-up Corporate America.

TRACKLIST

1. Boston - I Need Your Love (Album Version)
2. Boston - Surrender To Me (Album Version)
3. Boston - Livin' For You (Album Version)
4. Boston - Walkin' At Night (Album Version)
5. Boston - Walk On (Album Version)
6. Boston - Get Organ-ized/Get Reorgan-ized (Album Version)
7. Boston - Walk On (Some More) (Album Version)
8. Boston - What's Your Name (Album Version)
9. Boston - Magdalene (Album Version)
10. Boston - We Can Make It (Album Version)

foobar2000 1.6.2 / Dynamic Range Meter 1.1.1
log date: 2021-09-26 08:00:41

––––––––––––––––––––––––––––––––––––––––
Analyzed: Boston / Walk On
––––––––––––––––––––––––––––––––––––––––

DR Peak RMS Duration Track
––––––––––––––––––––––––––––––––––––––––
DR7 -0.34 dB -9.68 dB 5:33 01-I Need Your Love (Album Version)
DR6 -0.34 dB -8.80 dB 5:33 02-Surrender To Me (Album Version)
DR7 -0.34 dB -9.68 dB 4:56 03-Livin' For You (Album Version)
DR6 -0.34 dB -10.73 dB 2:03 04-Walkin' At Night (Album Version)
DR8 -0.34 dB -8.99 dB 2:58 05-Walk On (Album Version)
DR6 -0.34 dB -8.26 dB 4:28 06-Get Organ-ized/Get Reorgan-ized (Album Version)
DR6 -0.34 dB -7.86 dB 2:52 07-Walk On (Some More) (Album Version)
DR6 -0.34 dB -8.49 dB 4:28 08-What's Your Name (Album Version)
DR7 -0.34 dB -9.91 dB 5:59 09-Magdalene (Album Version)
DR6 -0.34 dB -9.24 dB 5:30 10-We Can Make It (Album Version)
––––––––––––––––––––––––––––––––––––––––

Number of tracks: 10
Official DR value: DR7

Samplerate: 192000 Hz
Channels: 2
Bits per sample: 24
Bitrate: 5859 kbps
Codec: FLAC
================================================================================



Thanks to the Original customer.