Angelo Branduardi ‎– A La Foire De L'Est (Alla Fiera Dell'Est) (1978 LP/FLAC) In 24bit/96kHz & 16bit/44kHz

Posted By: Fran Solo
Angelo Branduardi ‎– A La Foire De L'Est (Alla Fiera Dell'Est) (1978 LP/FLAC) In 24bit/96kHz & 16bit/44kHz

Angelo Branduardi ‎– A La Foire De L'Est (Alla Fiera Dell'Est)
Vinyl | LOG | CUE | FLAC | Tags | Full LP Cover (1:1)
24bit/96kHz: 926mb - 16bit/44kHz: 263mb
Genre: Progressive-Folk | Label: Musiza / 25369 | Release: 1978
Angelo Branduardi ‎– A La Foire De L'Est (Alla Fiera Dell'Est) (1978 LP/FLAC) In 24bit/96kHz & 16bit/44kHz

Angelo Branduardi ‎– A La Foire De L'Est (Alla Fiera Dell'Est) (1978 LP/FLAC) In 24bit/96kHz & 16bit/44kHz

Angelo Branduardi ‎– A La Foire De L'Est (Alla Fiera Dell'Est) (1978 LP/FLAC) In 24bit/96kHz & 16bit/44kHz

Side A
1 A La Foire De L'Est
2 Les Herons
3 Le Viellard Et L'Hirondelle
4 Chanson Pour Sarah
5 La Série Des Nombres
Side B
1 Le Don Du Cerf
2 Funerailles
3 L'Homme Et La Nuee
4 Sous Le Tilleul
5 Loin De La Frontière

–––––––––––––––––––––––––––––––––––––––––––––––
Analyzed folder: Angelo Branduardi ‎– A La Foire De L'Est (LP)
–––––––––––––––––––––––––––––––––––––––––––––––
DR Peak RMS Filename
–––––––––––––––––––––––––––––––––––––––––––––––

DR13 -1.71 dB -16.90 dB 01 Angelo Branduardi - LADO 1- A La Foire De L'Est.wav
DR12 -3.22 dB -19.18 dB 02 Angelo Branduardi - Les Herons.wav
DR13 -3.40 dB -17.78 dB 03 Angelo Branduardi - Le Viellard Et L'Hirondelle.wav
DR11 -4.73 dB -19.75 dB 04 Angelo Branduardi - Chanson Pour Sarah.wav
DR13 -1.72 dB -16.95 dB 05 Angelo Branduardi - La Serie Des Nombres.wav
DR13 -1.91 dB -16.77 dB 06 Angelo Branduardi - LADO 2- Le Don Du Cerf.wav
DR12 -4.15 dB -20.28 dB 07 Angelo Branduardi - Funerailles.wav
DR10 -3.85 dB -17.16 dB 08 Angelo Branduardi - L'Homme Et La Nuee.wav
DR12 -2.80 dB -17.46 dB 09 Angelo Branduardi - Sous Le Tilleul.wav
DR11 -4.58 dB -19.40 dB 10 Angelo Branduardi - Loin De La Frontiere.wav
–––––––––––––––––––––––––––––––––––––––––––––––

Number of files: 10
Official DR value: DR12

==============================================================================================

Pure Analog Rip
Direct Drive Turntable: Marantz 6170
Cartridge: SHURE M97xE
Amplifier: Sansui 9090DB
Cleaning
Moth MkII Pro Vinyl Record Cleaning Machine
LE-BO Magnetic Record Cleaner – PICKERING Antistatic Carbon Fibre
Edition
Adobe Audition CS 5.5 – xACT & XLD (lossless)
Redbook Conversion: Izotope RX Advanced
Clickrepair with Izotope RX Advanced
Full Scan & Corrected LP Cover and LP Rip: Fran Solo
Password: WITHOUT PASSWORD

Classical music meets mediterrenean meets pop, and a beautiful masterful journey into the world of ethnic popular music "A La Foire De L'Est" (Alla Fiera dell'Est), based on an ancient Jewish Passover song, is one of the most beautiful songs composed in Italy during the 1970s. Branduardi has a real classical music education and you can see that in the polyphony of the orchestral part, magically evocative of ancient music (meaning pre-Baroque) even if there is here substantial use of electronic resources. Angelo Branduardi was born February 12, 1950 in the Northern Italian countryside in a small town called Cuggioni. Branduardi experimented with a few instruments before settling on guitar, playing piano at age six, and violin as a soloist at the Conservatory Niccolo Paganini. He spent some time studying poetry and philosophy in Milan, but not finding satisfactory answers to his questions, he chose to dedicate his time and energy towards music.
Compilation Notes
This LP is a gift from my good friend polux, merci beaucoup!
Welcome to the Dark Side of the Vinyl

Vinyl / LOG/ CUE/ FLAC/ High Definition Cover - 926mb RAR & 263mb ZIP:
Uploaded 2496
Part 1
Part 2
Part 3

FileFactory 2496
Part 1
Part 2
Part 3

MirrorCreator (Rapidshare - Hotfile -Uploaded… etc.) 2496
Part 1
Part 2
Part 3

1644