BBC National Orchestra of Wales & Rumon Gamba - British Tone Poems, Vol. 1 (2017) [Official Digital Download 24/96]

Posted By: SERTiL
BBC National Orchestra of Wales & Rumon Gamba - British Tone Poems, Vol. 1 (2017) [Official Digital Download 24/96]

BBC National Orchestra of Wales & Rumon Gamba - British Tone Poems, Vol. 1 (2017)
FLAC (tracks) 24-bit/96 kHz | Time - 76:32 minutes | 1.19 GB
Studio Master, Official Digital Download | Artwork: Digital Booklet

Alongside their British Isles Overtures series, the BBC NOW and the conductor Rumon Gamba launch a project to bring often neglected symphonic poems by British composers to wider attention and fame. This first volume presents some of the most individual, yet rarely heard, British tone poems written in the early twentieth century, by composers ranging from the long-established Ralph Vaughan Williams and William Alwyn to Balfour Gardiner and Granville Bantock, giants in their time. Works include Bantock’s atmospheric The Witch of Atlas, based on a poem by Shelley, Frederic Austin’s symphonic rhapsody Spring, Gardiner’s evocation of summer A Berkshire Idyll, recorded here for the first time, and Gurney’s mysterious A Gloucestershire Rhapsody, never performed before 2010.

Tracklist:
01. Spring: I. Moderate Movement, Easily Swinging
02. Spring: II. Poco meno mosso
03. Spring: III. Slightly Broader Than Tempo I
04. Spring: IV. Andante moderato
05. Spring: V. Più animato quasi ad libitum
06. Blackdown
07. The Witch of Atlas: A. Lento molto e tranquillo
08. The Witch of Atlas: B. Lento misterioso
09. The Witch of Atlas: C. L'istesso tempo-Molto cantabile e sostenuto
10. The Witch of Atlas: D. Allegretto molto leggiero-Molto sostenuto
11. The Witch of Atlas: E. Andante con molta tenerezza
12. The Witch of Atlas: F. Accelerando-Poco più moto
13. The Witch of Atlas: G. Marziale con anima-Harp Cadenza
14. The Witch of Atlas: H. Più tranquillamente-Tempo I-Molto lento
15. A Gloucestershire Rhapsody (Ed. P. Lancaster & I. Venables): I. Maestoso e con ampio trascinare-Più mosso
16. A Gloucestershire Rhapsody (Ed. P. Lancaster & I. Venables): II. L'istesso tempo
17. A Gloucestershire Rhapsody (Ed. P. Lancaster & I. Venables): III. Poco più mosso
18. A Gloucestershire Rhapsody (Ed. P. Lancaster & I. Venables): IV. A tempo-Poco più mosso
19. A Gloucestershire Rhapsody (Ed. P. Lancaster & I. Venables): V. Alla marcia
20. A Berkshire Idyll: I. Adagio-Poco più mosso. Andante non troppo
21. A Berkshire Idyll: II. L'istesso tempo-Poco tranquillo
22. A Berkshire Idyll: III. Andante non troppo
23. A Berkshire Idyll: IV. Adagio, quasi andante-Lento-A tempo tranquillo
24. The Solent

Personnel:
BBC National Orchestra of Wales
Rumon Gamba (conductor)

foobar2000 1.3.7 / Dynamic Range Meter 1.1.1
log date: 2018-01-03 22:32:56

––––––––––––––––––––––––––––––––––––––––
Analyzed: BBC National Orchestra of Wales, Rumon Gamba / British Tone Poems - Vol. 1 - BBC NOW, Rumon Gamba (2017) [Hi-Res]
––––––––––––––––––––––––––––––––––––––––

DR Peak RMS Duration Track
––––––––––––––––––––––––––––––––––––––––
DR12 -5.24 dB -23.78 dB 3:04 01-Spring (1902-07): I. Moderate movement, easily swinging – Slightly more sustained – Tempo I – Again more sustained – Poco più animato –
DR11 -2.15 dB -22.17 dB 2:36 02-Spring (1902-07): II. Poco meno mosso -
DR12 -1.80 dB -19.03 dB 1:35 03-Spring (1902-07): III. Slightly broader than Tempo I (easily swinging) – Più animato – Più animato –
DR12 -7.27 dB -25.87 dB 3:06 04-Spring (1902-07): IV. Andante moderato –
DR15 -0.23 dB -20.20 dB 4:01 05-Spring (1902-07): V. Più animato quasi ad libitum – Tempo I (easily swinging) – Poco più allegro
DR14 -2.14 dB -25.62 dB 5:25 06-Blackdown (1926): Allegretto – [ ] – Tempo I
DR15 -14.58 dB -37.70 dB 2:05 07-The Witch of Atlas (1902): A. Lento molto e tranquillo –
DR11 -18.86 dB -34.36 dB 2:15 08-The Witch of Atlas (1902): B. Lento misterioso –
DR12 -11.12 dB -28.20 dB 2:25 09-The Witch of Atlas (1902): C. L’istesso tempo – Molto cantabile e sostenuto –
DR11 -14.37 dB -34.23 dB 1:22 10-The Witch of Atlas (1902): D. Allegretto molto leggiero – Molto sostenuto –
DR10 -14.25 dB -27.90 dB 0:59 11-The Witch of Atlas (1902): E. Andante con molta tenerezza –
DR12 -5.61 dB -20.19 dB 0:30 12-The Witch of Atlas (1902): F. Accelerando – Poco più moto –
DR13 -4.14 dB -24.11 dB 1:49 13-The Witch of Atlas (1902): G. Marziale con anima – Harp Cadenza –
DR14 -6.77 dB -28.18 dB 2:50 14-The Witch of Atlas (1902): H. Più tranquillamente – Tempo I – Molto lento
DR15 -4.91 dB -27.65 dB 3:58 15-A Gloucestershire Rhapsody (1919-21): I. [Maestoso e con ampio trascinare] – [Più mosso] – [Un poco più mosso] –
DR11 -0.44 dB -18.14 dB 1:57 16-A Gloucestershire Rhapsody (1919-21): II. [L'istesso tempo] –
DR15 -2.19 dB -22.76 dB 3:05 17-A Gloucestershire Rhapsody (1919-21): III. [Poco più mosso] –
DR12 -5.68 dB -24.51 dB 3:11 18-A Gloucestershire Rhapsody (1919-21): IV. [A tempo] – [Poco più mosso] –
DR13 -0.70 dB -19.80 dB 5:50 19-A Gloucestershire Rhapsody (1919-21): V. [Alla marcia]
DR14 -4.19 dB -26.36 dB 2:57 20-A Berkshire Idyll (1913): I. Adagio – Poco più mosso. Andante non troppo –
DR13 -1.74 dB -23.07 dB 3:58 21-A Berkshire Idyll (1913): II. L’istesso tempo – Poco tranquillo – Molto più tranquillo – Vivo – Largamente – Tranquillo – Lento –
DR10 -17.52 dB -33.89 dB 1:37 22-A Berkshire Idyll (1913): III. Tempo I. Andante non troppo –
DR12 -7.81 dB -26.37 dB 3:21 23-A Berkshire Idyll (1913): IV. Adagio, quasi andante – Lento – A tempo tranquillo
DR16 -4.62 dB -27.09 dB 12:42 24-The Solent (1902-03): Adagio molto – Poco più mosso – Tempo I – Poco più mosso, tempo rubato – Tempo I – Poco più mosso – Tempo I, solenne
––––––––––––––––––––––––––––––––––––––––

Number of tracks: 24
Official DR value: DR13

Samplerate: 96000 Hz
Channels: 2
Bits per sample: 24
Bitrate: 2066 kbps
Codec: FLAC
================================================================================


Thanks to the Original customer.