Bruce Springsteen - The Essential Bruce Springsteen (2015) [Official Digital Download 24/96]

Posted By: Pisulik
Bruce Springsteen - The Essential Bruce Springsteen (2015) [Official Digital Download 24/96]

Bruce Springsteen - The Essential Bruce Springsteen (2015)
FLAC (tracks) 24-bit/96 kHz | Time - 154:57 minutes | 3,19 GB
Studio Master, Official Digital Download | Artwork: Front cover

In the decades following his emergence on the national scene in 1975, Bruce Springsteen has proved to be that rarity among popular musicians, an artist who maintained his status as a frontline recording and performing star, consistently selling millions of albums and selling out arenas and stadiums around the world year after year, as well as retaining widespread critical approbation, with ecstatic reviews greeting those albums and shows.

Originally released back in November 2003, 'The Essential Bruce Springsteen' included 30 of Bruce's all time hit singles, as well as some live recordings, across all of his albums, from 'Greetings From Asbury Park, NJ' in 1973 up to 'The Rising' in 2002.

This fantastic new track listing replaces the multi-million selling Essential title from 2003 and is newly curated 2-album, 37 track, career retrospective spanning 1973 to 2015, featuring the classic tracks 'Born To Run,' 'Thunder Road,' 'Dancing In The Dark,' 'Born In The U.S.A.' and many more! It features 19 new tracks in total, 9 new and 10 replace tracks from the original release.

Transferred from the original analogue masters and remastered by Bob Ludwig, working with Springsteen and longtime engineer Toby Scott.

Tracklist:

CD1

01. Growin' Up
02. Rosalita (Come Out Tonight)
03. 4th of July, Asbury Park (Sandy)
04. Thunder Road
05. Born to Run
06. Tenth Avenue Freeze-Out
07. Badlands (Remastered)
08. The Promised Land (Remastered)
09. Prove It All Night (Remastered)
10. The River
11. Hungry Heart
12. The Ties That Bind
13. Out In the Street
14. Atlantic City
15. Johnny 99
16. Glory Days
17. Born in the U.S.A.
18. Dancing In the Dark

foobar2000 1.3.7 / Dynamic Range Meter 1.1.1
log date: 2017-12-28 08:32:26

––––––––––––––––––––––––––––––––––––––––
Analyzed: Bruce Springsteen / The Essential Bruce Springsteen
––––––––––––––––––––––––––––––––––––––––

DR Peak RMS Duration Track
––––––––––––––––––––––––––––––––––––––––
DR10 -0.37 dB -12.91 dB 3:07 01-Growin' Up
DR9 -0.04 dB -10.46 dB 7:03 02-Rosalita (Come Out Tonight)
DR10 0.00 dB -12.58 dB 5:37 03-4th of July, Asbury Park (Sandy)
DR7 -0.10 dB -9.88 dB 4:49 04-Thunder Road
DR7 0.00 dB -8.44 dB 4:31 05-Born to Run
DR8 -0.09 dB -9.40 dB 3:12 06-Tenth Avenue Freeze-Out
DR9 -0.15 dB -11.41 dB 4:03 07-Badlands (Remastered)
DR8 -0.15 dB -10.39 dB 4:30 08-The Promised Land (Remastered)
DR8 -0.05 dB -9.95 dB 4:00 09-Prove It All Night (Remastered)
DR12 -0.10 dB -14.68 dB 5:01 10-The River
DR11 -0.10 dB -12.28 dB 3:21 11-Hungry Heart
DR10 -0.23 dB -11.89 dB 3:34 12-The Ties That Bind
DR10 -0.10 dB -12.10 dB 4:21 13-Out In the Street
DR11 -0.72 dB -14.80 dB 4:00 14-Atlantic City
DR11 -0.10 dB -13.72 dB 3:41 15-Johnny 99
DR8 -0.05 dB -9.58 dB 4:16 16-Glory Days
DR8 -0.05 dB -10.16 dB 4:40 17-Born in the USA
DR8 -0.09 dB -8.96 dB 4:01 18-Dancing In the Dark
––––––––––––––––––––––––––––––––––––––––

Number of tracks: 18
Official DR value: DR9

Samplerate: 96000 Hz
Channels: 2
Bits per sample: 24
Bitrate: 3126 kbps
Codec: FLAC
================================================================================


CD2

01. Tougher Than the Rest
02. Brilliant Disguise
03. One Step Up
04. Human Touch
05. Better Days
06. If I Should Fall Behind
07. Streets of Philadelphia
08. Murder Incorporated
09. The Ghost of Tom Joad
10. The Rising
11. Lonesome Day
12. Devils & Dust
13. Long Time Comin'
14. Radio Nowhere
15. Working On a Dream
16. My Lucky Day
17. The Wrestler (Bonus Track)
18. We Take Care of Our Own
19. Hunter of Invisible Game

foobar2000 1.3.7 / Dynamic Range Meter 1.1.1
log date: 2017-12-28 08:42:15

––––––––––––––––––––––––––––––––––––––––
Analyzed: Bruce Springsteen / The Essential Bruce Springsteen
––––––––––––––––––––––––––––––––––––––––

DR Peak RMS Duration Track
––––––––––––––––––––––––––––––––––––––––
DR12 -0.10 dB -13.22 dB 4:37 01-Tougher Than the Rest
DR11 -0.10 dB -12.90 dB 4:17 02-Brilliant Disguise
DR12 -0.10 dB -13.72 dB 4:23 03-One Step Up
DR12 -0.13 dB -13.93 dB 5:12 04-Human Touch
DR9 0.00 dB -10.10 dB 3:47 05-Better Days
DR10 -0.10 dB -13.13 dB 2:58 06-If I Should Fall Behind
DR10 -0.37 dB -12.53 dB 3:17 07-Streets of Philadelphia
DR9 0.00 dB -10.38 dB 4:00 08-Murder Incorporated
DR12 0.00 dB -15.78 dB 4:23 09-The Ghost of Tom Joad
DR7 -0.20 dB -9.94 dB 4:48 10-The Rising
DR8 -0.26 dB -9.11 dB 4:08 11-Lonesome Day
DR8 -0.06 dB -11.56 dB 5:03 12-Devils & Dust
DR7 -0.13 dB -8.43 dB 4:17 13-Long Time Comin'
DR8 -0.10 dB -8.92 dB 3:21 14-Radio Nowhere
DR8 0.00 dB -9.40 dB 3:30 15-Working On a Dream
DR8 0.00 dB -8.78 dB 4:02 16-My Lucky Day
DR8 -2.93 dB -14.55 dB 3:51 17-The Wrestler (Bonus Track)
DR7 0.00 dB -8.68 dB 3:57 18-We Take Care of Our Own
DR9 -0.03 dB -10.78 dB 4:40 19-Hunter of Invisible Game
––––––––––––––––––––––––––––––––––––––––

Number of tracks: 19
Official DR value: DR9

Samplerate: 96000 Hz
Channels: 2
Bits per sample: 24
Bitrate: 2959 kbps
Codec: FLAC
================================================================================


All thanks go to the original releaser