Tags
Language
Tags

Buddy Holly - Greatest Hits (1996/2021) [Official Digital Download 24/96]

Posted By:
Buddy Holly - Greatest Hits (1996/2021) [Official Digital Download 24/96]

Buddy Holly - Greatest Hits (1996/2021) [Official Digital Download 24/96]
FLAC (tracks) 24-bit/96 kHz | Front Cover | Time - 39:40 minutes | 533 MB
Rock-n-Roll | Label: Geffen*, Official Digital Download

Greatest Hits is a compilation album of songs taken from Buddy Holly's three original albums, The "Chirping" Crickets, Buddy Holly and That'll Be the Day, released in 1996 by MCA Records. It includes top ten hits "Peggy Sue" and "Oh, Boy!", along with number-one hit "That'll Be the Day".

TRACKLIST

1. Buddy Holly & The Crickets - That'll Be The Day (Single Version)
2. Buddy Holly & The Crickets - I'm Lookin' For Someone To Love (Single Version)
3. Buddy Holly - Words Of Love (Single Version)
4. Buddy Holly & The Crickets - Not Fade Away (Single Version)
5. Buddy Holly - Everyday (Single Version)
6. Buddy Holly & The Crickets - Oh Boy! (Single Version)
7. Buddy Holly - Peggy Sue (Single Version)
8. Buddy Holly - I'm Gonna Love You Too (Single Version)
9. Buddy Holly & The Crickets - Maybe Baby
10. Buddy Holly - Rave On
11. Buddy Holly & The Crickets - Think It Over (Single Version)
12. Buddy Holly & The Crickets - Fool's Paradise (Single Version)
13. Buddy Holly - Early In The Morning (Single Version)
14. Buddy Holly & The Crickets - It's So Easy (Single Version)
15. Buddy Holly - Heartbeat (Single Version)
16. Buddy Holly - True Love Ways
17. Buddy Holly - It Doesn't Matter Anymore (Single Version)
18. Buddy Holly - Raining In My Heart (Single Version)

foobar2000 1.6.2 / Dynamic Range Meter 1.1.1
log date: 2021-09-19 06:54:43

––––––––––––––––––––––––––––––––––––––––
Analyzed: Buddy Holly & The Crickets / Greatest Hits (1-8)
Buddy Holly / Greatest Hits (9-18)
––––––––––––––––––––––––––––––––––––––––

DR Peak RMS Duration Track
––––––––––––––––––––––––––––––––––––––––
DR12 -0.70 dB -14.14 dB 2:16 01-That'll Be The Day (Single Version)
DR12 -0.70 dB -13.89 dB 1:58 02-I'm Lookin' For Someone To Love (Single Version)
DR12 -0.70 dB -14.86 dB 2:21 04-Not Fade Away (Single Version)
DR12 -0.70 dB -14.26 dB 2:08 06-Oh Boy! (Single Version)
DR13 -0.70 dB -14.62 dB 2:02 09-Maybe Baby
DR11 -1.53 dB -14.80 dB 1:47 11-Think It Over (Single Version)
DR12 -0.70 dB -14.16 dB 2:30 12-Fool's Paradise (Single Version)
DR12 -0.70 dB -14.00 dB 2:11 14-It's So Easy (Single Version)
DR12 -0.70 dB -15.09 dB 1:55 03-Words Of Love (Single Version)
DR12 -0.70 dB -13.88 dB 2:08 05-Everyday (Single Version)
DR11 -0.70 dB -13.09 dB 2:30 07-Peggy Sue (Single Version)
DR12 -0.70 dB -13.64 dB 2:14 08-I'm Gonna Love You Too (Single Version)
DR12 -0.71 dB -13.96 dB 1:50 10-Rave On
DR12 -1.04 dB -14.27 dB 2:07 13-Early In The Morning (Single Version)
DR12 -0.70 dB -14.21 dB 2:10 15-Heartbeat (Single Version)
DR10 -0.70 dB -14.07 dB 2:49 16-True Love Ways
DR10 -0.70 dB -13.49 dB 2:05 17-It Doesn't Matter Anymore (Single Version)
DR12 -0.70 dB -15.09 dB 2:49 18-Raining In My Heart (Single Version)
––––––––––––––––––––––––––––––––––––––––

Number of tracks: 18
Official DR value: DR12

Samplerate: 96000 Hz
Channels: 2
Bits per sample: 24
Bitrate: 2757 kbps
Codec: FLAC
================================================================================



Thanks to the Original customer.