Camel ‎– Breathless (1978 LP/FLAC) In 24bit/96kHz & 16bit/44kHz

Posted By: Fran Solo
Camel ‎– Breathless (1978 LP/FLAC) In 24bit/96kHz & 16bit/44kHz

Camel ‎– Breathless (Featuring The Smash Hit "Echoes")
Vinyl | LOG | CUE | FLAC | Tags | Full LP Cover (1:1)
24bit/96kHz: 979mb – 16bit/44kHz: 297mb
Genre: Progressive-Rock | Label: Arista / AB 4206 | Release: 1978
Camel ‎– Breathless (1978 LP/FLAC) In 24bit/96kHz & 16bit/44kHz

Camel ‎– Breathless (1978 LP/FLAC) In 24bit/96kHz & 16bit/44kHz

Camel ‎– Breathless (1978 LP/FLAC) In 24bit/96kHz & 16bit/44kHz

Side 1
1. Breathless (4:16)
2. Echoes (7:22)
3. Wing and Prayer (4:41)
4. Down on the Farm (4:20)
5. Starlight Ride (3:20)
Side 2
6. Summer Lightning (6:03)
7. You Make me Smile (4:13)
8. The Sleeper (7:02)
9. Rainbow’s End (3:00)

———————————————————————————————-
Analyzed folder: Camel ‎– Breathless (LP)
———————————————————————————————-
DR Peak RMS Filename
———————————————————————————————-

DR13 -8.06 dB -23.49 dB 01 Camel – LADO 1- Breathless.wav
DR13 -6.31 dB -21.54 dB 02 Camel – Echoes.wav
DR15 -6.23 dB -22.95 dB 03 Camel – Wing And A Prayer.wav
DR14 -6.53 dB -22.57 dB 04 Camel – Down On The Farm.wav
DR11 -12.24 dB -26.18 dB 05 Camel – Starlight Ride.wav
DR15 -1.54 dB -18.81 dB 06 Camel – LADO 2- Summer Lightning.wav
DR14 -3.16 dB -19.21 dB 07 Camel – You Make Me Smile.wav
DR12 -3.94 dB -19.66 dB 08 Camel – The Sleeper.wav
DR12 -8.91 dB -24.42 dB 09 Camel – Rainbow’s End.wav
———————————————————————————————-

Number of files: 9
Official DR value: DR13

==============================================================================================

“Breathless” is the sixth Camel’s work. Clearly, has change to a commercial sound, but not so lacking in quality. I have very good memories, because I heard at the first time, the track “Echoes”, simply a masterpiece. Not for nothing in a compilation of all the essentials of Camel as a double-CD, made ​​by the label “Chronicles” called “Echoes”.
The album is not the brightest, but has another memorable track is “The Sleeper”.
For me, having this pressing is a prize … well, I am a diehard fan of “Camel”.
Spanish.
“Breathless” es el sexto trabajo de Camel. Es evidente el cambio a un sonido más comercial, pero no por eso falto de calidad. Tengo muy buenos recuerdos, porque la primera pista que escuché es “Echoes”, sencillamente una obra maestra. No por nada hay un compilado de todo lo imprescindible de Camel en forma de doble-CD hecho por la etiqueta “Chronicles” que se llama “Echoes”.
El álbum no es de los más brillantes, pero tiene pistas memorables otra es “The sleeper”.
Por mi, tener este prensado es un premio… pues, soy un acérrimo fan de “Camel”.
Fran Solo, MMXIII

Equipment
Vinyl rip, mastered and audio correction: Fran Solo
Direct Drive Turntable: Marantz 6170
Cartridge: SHURE M97xE (audiophile)
Edition: Adobe Audition CS 5.5 & Amadeus PRO - xACT & XLD (lossless)
Redbook Conversion: Izotope RX Advanced
Clickrepair with Izotope RX Advanced: Yes
Password: WITHOUT PASSWORD
Scans Full & Corrected LP Cover, 1:1
(All included in 300dpi: front/back - gatefold outside/inside - booklet - insert - envelope - labels, etc.): Fran Solo


Vinyl / CUE/ FLAC/ High Definition Cover - 979Mb RAR & 297mb ZIP:
Uploaded 2496
Part 1
Part 2
Part 3

MirrorCreator (Rapidshare - Hotfile -Uploaded - Gamefront) 2496
Part 1
Part 2
Part 3

Please, part 2 of 2496 rename to: Cam______Bre-DV.part2.rar

1644