Tags
Language
Tags

Cecil Parker - Uhoh (Remastered) (2020) [Official Digital Download 24/96]

Posted By:
Cecil Parker - Uhoh (Remastered) (2020) [Official Digital Download 24/96]

Cecil Parker - Uhoh (Remastered) (2020) [Official Digital Download 24/96]
FLAC (tracks) 24-bit/96 kHz | Front Cover | Time - 01:18:09 minutes | 1,49 GB
R&B, Soul | Label: Sony/The Orchard, Official Digital Download

The honeyed vocals of Cecil Parker serve up music that’s both hot and smooth. A singer, songwriter, and above all, consummate performer, Cecil Parker has been compared to Maxwell, Marvin Gaye, Al Green, and Lou Rawls if these old school greats were fused with current acts like Usher, Kem, Eric Benet and Ne-Yo.

A skilled musician, Cecil Parker covers a four-octave range. He is also an accomplished songwriter and a highly regarded recording artist. Whether in front of the mic or behind the mixing board, Parker shines. His self-produced CD, For Now, included a release of “Wit U (sick mix)”, a hot urban style single. The same CD included the tender wedding ballad, “For You,” and smoking dance club track “I Need a Lover.” Fully embracing the digital age of recording, Parker is a perfectionist with style and a killer voice that sounds as strong live as it does on record.

With a genre that appeals across the board from R&B and pop to dance hits, Parker is a charismatic and versatile entertainer. With hits including “Another Level (Waiting)” and “Love Don’t Love You,” his worldwide recording and live performance success is easily attributed to his rich vocals and solid mix of ballads and dance classics.

TRACKLIST

1. Cecil Parker - Long as I'm Able
2. Cecil Parker - I Tried
3. Cecil Parker - When It's Time
4. Cecil Parker - Bring It (Rise up!)
5. Cecil Parker - Recognize My Needs
6. Cecil Parker - Git Yo Ya Ya Ya
7. Cecil Parker - Ooh,More Love
8. Cecil Parker - Wit U U U
9. Cecil Parker - Uhoh
10. Cecil Parker - What About Us?
11. Cecil Parker - I Need a Luvr
12. Cecil Parker - Next to You
13. Cecil Parker - Come over Here (Bring Luv)
14. Cecil Parker - Wish for Us
15. Cecil Parker - I Do
16. Cecil Parker - Another Level (Dance up!)
17. Cecil Parker - Till Then (I Hurt)
18. Cecil Parker - Cause God Is
19. Cecil Parker - Love so Much

foobar2000 1.3.16 / Dynamic Range Meter 1.1.1
log date: 2020-07-08 15:09:32

––––––––––––––––––––––––––––––––––––––––
Analyzed: Cecil Parker / Uhoh
––––––––––––––––––––––––––––––––––––––––

DR Peak RMS Duration Track
––––––––––––––––––––––––––––––––––––––––
DR9 -0.54 dB -11.86 dB 3:38 01-Long as I'm Able
DR9 -0.54 dB -11.39 dB 3:42 02-I Tried
DR9 -0.54 dB -12.03 dB 4:27 03-When It's Time
DR8 -0.54 dB -10.07 dB 3:56 04-Bring It (Rise up!)
DR8 -0.54 dB -10.54 dB 3:55 05-Recognize My Needs
DR8 -0.54 dB -9.68 dB 3:42 06-Git Yo Ya Ya Ya
DR10 -0.54 dB -13.19 dB 4:56 07-Ooh,More Love
DR9 -0.54 dB -11.16 dB 4:04 08-Wit U U U
DR10 -0.54 dB -12.59 dB 3:42 09-Uhoh
DR10 -0.54 dB -12.47 dB 3:50 10-What About Us?
DR9 -0.54 dB -11.21 dB 4:37 11-I Need a Luvr
DR10 -0.55 dB -12.67 dB 3:36 12-Next to You
DR10 -0.54 dB -12.71 dB 4:04 13-Come over Here (Bring Luv)
DR10 -0.55 dB -14.92 dB 4:20 14-Wish for Us
DR8 -0.54 dB -11.09 dB 4:01 15-I Do
DR10 -0.54 dB -12.08 dB 5:12 16-Another Level (Dance up!)
DR11 -0.55 dB -14.89 dB 4:33 17-Till Then (I Hurt)
DR10 -0.54 dB -14.68 dB 4:16 18-'Cause God Is
DR11 -0.54 dB -15.31 dB 3:49 19-Love so Much
––––––––––––––––––––––––––––––––––––––––

Number of tracks: 19
Official DR value: DR10

Samplerate: 96000 Hz
Channels: 2
Bits per sample: 24
Bitrate: 2534 kbps
Codec: FLAC
================================================================================



Thanks to the Original customer.