Chris Thile - Thanks for Listening (2017) [Official Digital Download 24/96]

Posted By: Pisulik
Chris Thile - Thanks for Listening (2017) [Official Digital Download 24/96]

Chris Thile - Thanks for Listening (2017)
FLAC (tracks) 24-bit/96 kHz | Time - 43:03 minutes | 861 MB
Studio Master, Official Digital Download | Artwork: Digital Booklet

Thanks for Listening is a collection of new studio recordings, produced by Thomas Bartlett, of ten songs originally written as Songs of the Week on A Prairie Home Companion. Thile manned almost all of the stringed instruments on the album and is joined by guest singers Sarah Jarosz, Gaby Moreno, and Aoife O'Donovan. "Right now, with how easy it is to be the talker on social media, how hard it is to maintain focus or give something enough attention to appreciate it, we're in a place where listening is a precious commodity," says Thile. "Thanks for Listening is a celebration of people who haven't switched off, despite being given every reason to do so."

Tracklist:

01. I Made This for You
02. Feedback Loop
03. Elephant in the Room
04. Douglas Fir
05. Thank You, New York
06. Stanley Ann
07. Modern Friendship
08. Falsetto
09. Balboa
10. Thanks for Listening

foobar2000 1.3.7 / Dynamic Range Meter 1.1.1
log date: 2017-12-07 15:35:53

––––––––––––––––––––––––––––––––––––––––
Analyzed: Chris Thile / Thanks for Listening
––––––––––––––––––––––––––––––––––––––––

DR Peak RMS Duration Track
––––––––––––––––––––––––––––––––––––––––
DR7 -0.38 dB -11.55 dB 4:11 01-I Made This for You
DR7 -0.88 dB -9.87 dB 4:12 02-Feedback Loop
DR7 -0.38 dB -9.61 dB 2:29 03-Elephant in the Room
DR9 -0.38 dB -13.11 dB 4:29 04-Douglas Fir
DR6 -0.38 dB -9.34 dB 4:53 05-Thank You, New York
DR9 -0.38 dB -12.91 dB 5:07 06-Stanley Ann
DR9 -0.38 dB -12.75 dB 4:34 07-Modern Friendship
DR7 -0.38 dB -9.29 dB 4:56 08-Falsetto
DR9 -0.38 dB -13.33 dB 3:56 09-Balboa
DR6 -0.45 dB -9.18 dB 4:19 10-Thanks for Listening
––––––––––––––––––––––––––––––––––––––––

Number of tracks: 10
Official DR value: DR8

Samplerate: 96000 Hz
Channels: 2
Bits per sample: 24
Bitrate: 2901 kbps
Codec: FLAC
================================================================================


All thanks go to the original releaser