La Rêveuse, Benjamin Perrot & Florence Bolton - Circa 1700: Purcell & his Generation (2019) [Official Digital Download 24/96]

Posted By: SERTiL
La Rêveuse, Benjamin Perrot & Florence Bolton - Circa 1700: Purcell & his Generation (2019) [Official Digital Download 24/96]

La Rêveuse, Benjamin Perrot & Florence Bolton - Circa 1700: Purcell & his Generation (2019)
FLAC (tracks) 24-bit/96 kHz | Time - 70:02 minutes | 1.24 GB
Studio Master, Official Digital Download | Artwork: Digital Booklet

At the end of the Seventeenth Century, London became a city full of promise, the stuff that dreams were made of: theatres and concerts were packed every night and the music publishing market was flourishing.

This great European capital at the height of its economic expansion was extremely attractive to the foreign musicians who settled there in large numbers. It provided a most favourable context for the development of instrumental music, fuelled by the final flowering of the English tradition and by the latest European innovations.

Tracklist:
1. Sonata No. 3 in D Minor, Z. 792: I. [Sans indication] . Adagio 01:41
2. Sonata No. 3 in D Minor, Z. 792: II. Canzona. [Allegro] - Adagio 02:11
3. Sonata No. 3 in D Minor, Z. 792: III. Poco largo. Allegro 02:55
4. A Ground in D Minor for Recorder 03:20
5. Trio Sonata in G Minor: I. Adagio 02:28
6. Trio Sonata in G Minor: II. Canzone. Allegro - Adagio - Presto 02:18
7. Trio Sonata in G Minor: III. Adagio 03:29
8. Trio Sonata in G Minor: IV. [Allegro]. Vivace - Adagio 01:47
9. Ground in G Minor for two Recorders 04:09
10. Suite in D Minor for Recorder: I. Ouverture 03:32
11. Suite in D Minor for Recorder: II. A Farewell 03:46
12. Suite in D Minor for Recorder: III. Jigg 43
13. Suite in D Minor for Recorder: IV. A Ground 02:52
14. Sonata Seconda in D for Viola da Gamba: I. Allegro - Adagio - Allegro - Adagio - Presto - Adagio 02:59
15. Sonata Seconda in D for Viola da Gamba: II. Aria 02:07
16. Sonata Seconda in D for Viola da Gamba: III. Adagio. [Allegro] - [Allegro] 04:10
17. Sonata Terza in D Minor for two Recorders: I. Adagio 01:41
18. Sonata Terza in D Minor for two Recorders: II. Allegro 01:00
19. Sonata Terza in D Minor for two Recorders: III. Largo 01:54
20. Sonata Terza in D Minor for two Recorders: IV. Allegro 01:02
21. Sonata Sexta in F Minor for Violin: I. Adagio 02:04
22. Sonata Sexta in F Minor for Violin: II. Allegro 01:04
23. Sonata Sexta in F Minor for Violin: III. Adagio 02:15
24. Sonata Sexta in F Minor for Violin: IV. Allegro 01:13
25. Sonata in F for two Recorders and two Violins: I. [Allegro] 01:03
26. Sonata in F for two Recorders and two Violins: II. Adagio 02:54
27. Sonata in F for two Recorders and two Violins: III. Allegro 01:52
28. Sonata No. 6 in G Minor, Z. 807 07:33

Personnel:
La Rêveuse
Benjamin Perrot, théorbe
Florence Bolton, viola da gamba

foobar2000 1.3.7 / Dynamic Range Meter 1.1.1
log date: 2019-01-11 22:17:52

––––––––––––––––––––––––––––––––––––––––
Analyzed: La Rêveuse, Benjamin Perrot & Florence Bolton / Circa 1700: Purcell & his Generation
––––––––––––––––––––––––––––––––––––––––

DR Peak RMS Duration Track
––––––––––––––––––––––––––––––––––––––––
DR11 -2.54 dB -17.59 dB 1:41 01-Sonata No. 3 in D Minor, Z. 792 - I. [Sans indication] . Adagio
DR12 -2.04 dB -17.65 dB 2:12 02-Sonata No. 3 in D Minor, Z. 792 - II. Canzona. [Allegro] - Adagio
DR12 -0.10 dB -15.74 dB 2:55 03-Sonata No. 3 in D Minor, Z. 792 - III. Poco largo. Allegro
DR10 -3.95 dB -18.44 dB 3:20 04-A Ground in D Minor for Recorder
DR11 -2.37 dB -17.08 dB 2:29 05-Trio Sonata in G Minor - I. Adagio
DR12 -2.86 dB -19.04 dB 2:18 06-Trio Sonata in G Minor - II. Canzone. Allegro - Adagio - Presto
DR11 -2.26 dB -17.10 dB 3:29 07-Trio Sonata in G Minor - III. Adagio
DR10 -1.83 dB -17.03 dB 1:48 08-Trio Sonata in G Minor - IV. [Allegro]. Vivace - Adagio
DR12 -1.12 dB -15.90 dB 4:09 09-Ground in G Minor for two Recorders
DR11 -1.59 dB -16.60 dB 3:32 10-Suite in D Minor for Recorder - I. Ouverture
DR10 -5.27 dB -18.74 dB 3:47 11-Suite in D Minor for Recorder - II. A Farewell
DR10 -3.46 dB -16.94 dB 0:43 12-Suite in D Minor for Recorder - III. Jigg
DR11 -2.73 dB -17.02 dB 2:52 13-Suite in D Minor for Recorder - IV. A Ground
DR10 -0.84 dB -15.37 dB 2:59 14-Sonata Seconda in D for Viola da Gamba - I. Allegro - Adagio - Allegro - Adagio - Presto - Adagio
DR11 -1.49 dB -18.57 dB 2:07 15-Sonata Seconda in D for Viola da Gamba - II. Aria
DR11 -3.96 dB -18.79 dB 4:11 16-Sonata Seconda in D for Viola da Gamba - III. Adagio. [Allegro] - [Allegro]
DR9 -2.61 dB -15.64 dB 1:41 17-Sonata Terza in D Minor for two Recorders - I. Adagio
DR10 -2.08 dB -16.33 dB 1:01 18-Sonata Terza in D Minor for two Recorders - II. Allegro
DR10 -0.24 dB -15.74 dB 1:54 19-Sonata Terza in D Minor for two Recorders - III. Largo
DR11 -1.14 dB -15.85 dB 1:03 20-Sonata Terza in D Minor for two Recorders - IV. Allegro
DR12 -3.62 dB -20.72 dB 2:05 21-Sonata Sexta in F Minor for Violin - I. Adagio
DR12 -2.27 dB -19.76 dB 1:05 22-Sonata Sexta in F Minor for Violin - II. Allegro
DR10 -3.76 dB -17.24 dB 2:15 23-Sonata Sexta in F Minor for Violin - III. Adagio
DR12 -4.10 dB -19.94 dB 1:13 24-Sonata Sexta in F Minor for Violin - IV. Allegro
DR11 -0.10 dB -16.21 dB 1:03 25-Sonata in F for two Recorders and two Violins - I. [Allegro]
DR11 -1.18 dB -15.82 dB 2:55 26-Sonata in F for two Recorders and two Violins - II. Adagio
DR11 -2.32 dB -16.77 dB 1:52 27-Sonata in F for two Recorders and two Violins - III. Allegro
DR12 -1.79 dB -17.93 dB 7:33 28-Sonata No. 6 in G Minor, Z. 807
––––––––––––––––––––––––––––––––––––––––

Number of tracks: 28
Official DR value: DR11

Samplerate: 96000 Hz
Channels: 2
Bits per sample: 24
Bitrate: 2514 kbps
Codec: FLAC
================================================================================


Thanks to the Original customer.