Clifford Brown - Live at the Bee Hive (1979/2018) [Official Digital Download 24/192]

Posted By: pyatak
Clifford Brown - Live at the Bee Hive (1979/2018) [Official Digital Download 24/192]

Clifford Brown - Live at the Bee Hive (1979/2018) [Official Digital Download 24/192]
FLAC (tracks) 24-bit/192 kHz | Front Cover | Time - 96:31 minutes | 1,92 GB
Jazz | Label: Columbia - Legacy, Official Digital Download

This double-LP was a major disappointment when it came out in 1979 due to the consistently crummy recording quality. The playing is actually somewhat historic, a jam session featuring the ill-fated Clifford Brown, tenorman Sonny Rollins (who was playing with Brownie for the first time), drummer Max Roach and a few other musicians (Nicky Hill on tenor, pianist Billy Wallace, guitarist Leo Blevins and bassist George Morrow). But many of these lengthy tunes ("I'll Remember April" is over 30 minutes long) sound like little more than trumpet-drums duets due to the weird balance, making most of the music quite unlistenable.

TRACKLIST

1. Clifford Brown - I'll Remember April (Part 1 - Live at the Bee Hive, Chicago, IL - November 1955)
2. Clifford Brown - I'll Remember April (Part 2 - Live at the Bee Hive, Chicago, IL - November 1955)
3. Clifford Brown - Walkin' (Live at the Bee Hive, Chicago, IL - November 1955)
4. Clifford Brown - Cherokee (Live at the Bee Hive, Chicago, IL - November 1955)
5. Clifford Brown - Woodyn' You (Live at the Bee Hive, Chicago, IL - November 1955)
6. Clifford Brown - Hot House (Live at the Bee Hive, Chicago, IL - November 1955)

foobar2000 1.6.2 / Dynamic Range Meter 1.1.1
log date: 2021-05-19 16:56:38

––––––––––––––––––––––––––––––––––––––––
Analyzed: Clifford Brown / Live at the Bee Hive
––––––––––––––––––––––––––––––––––––––––

DR Peak RMS Duration Track
––––––––––––––––––––––––––––––––––––––––
DR11 -1.29 dB -14.71 dB 22:09 01-I'll Remember April (Part 1 - Live at the Bee Hive, Chicago, IL - November 1955)
DR11 0.00 dB -13.33 dB 8:52 02-I'll Remember April (Part 2 - Live at the Bee Hive, Chicago, IL - November 1955)
DR9 -1.76 dB -13.67 dB 20:01 03-Walkin' (Live at the Bee Hive, Chicago, IL - November 1955)
DR7 -2.37 dB -11.12 dB 19:46 04-Cherokee (Live at the Bee Hive, Chicago, IL - November 1955)
DR8 -1.66 dB -11.93 dB 13:25 05-Woodyn' You (Live at the Bee Hive, Chicago, IL - November 1955)
DR10 -1.09 dB -13.04 dB 12:22 06-Hot House (Live at the Bee Hive, Chicago, IL - November 1955)
––––––––––––––––––––––––––––––––––––––––

Number of tracks: 6
Official DR value: DR10

Samplerate: 192000 Hz
Channels: 2
Bits per sample: 24
Bitrate: 2875 kbps
Codec: FLAC
================================================================================



Thanks to the Original customer.