Dan McCafferty - Last Testament (2019) [Official Digital Download 24/48]

Posted By: SERTiL
Dan McCafferty - Last Testament (2019) [Official Digital Download 24/48]

Dan McCafferty - Last Testament (2019)
FLAC (tracks) 24-bit/48 kHz | Time - 66:04 minutes | 787 MB
Studio Master, Official Digital Download | Artwork: Front Cover

There are very few classic rock vocalists that you recognize after hearing just a few notes. The legendary Dan McCafferty, the former front man of Scottish rockers NAZARETH, is one of those vocalists.

After nearly 50 years of road work with the band, McCafferty had to retire due to health reasons. However, that unique instrument — his voice — is still capable of blowing the roof off.

With 15 tracks, "Last Testament" is a blistering album with a full mix of lyrical and musical styles. It arrives on October 18 via earMUSIC. There are out-and-out rockers, like "My Baby" and "Bring It On Back", for example. But at the core of this release is a newfound freedom to explore avenues of creativity.

There are songs of reflection, like "You And Me", "Looking Back" and the very emotional first single "Tell Me", plus "Sunshine", which features a guest vocal by NAZARETH bandmate Pete Agnew, which are tender love songs.

McCafferty teamed up with Czech composer, accordion, and keyboard maestro Karel Marik, who is the author of all music and the producer of album, while McCafferty has written all the lyrics.

Recorded and mixed at Substation Studio in Rosyth, Scotland by sound engineer Duncan Aitken and mastered by Eike Freese at Chameleon Studios in Hamburg, "Last Testament" is a unique outstanding album which will surprise, challenge, and delight his countless fans throughout the world.

Tracklist:
1. You and Me 04:18
2. Why 05:54
3. Looking Back 03:28
4. Tell Me 04:49
5. I Can't Find the One for Me 04:09
6. Look at the Song in My Eyes 04:26
7. Home Is Where the Heart Is 04:48
8. My Baby 02:38
9. Refugee 05:25
10. Mafia 06:56
11. Sunshine 03:35
12. Nobody's Home 03:28
13. Right to Fail 02:46
14. Bring It on Back 04:16
15. You and Me (Acoustic) 05:16

foobar2000 1.3.7 / Dynamic Range Meter 1.1.1
log date: 2019-09-11 17:58:53

––––––––––––––––––––––––––––––––––––––––
Analyzed: Dan McCafferty / Last Testament
––––––––––––––––––––––––––––––––––––––––

DR Peak RMS Duration Track
––––––––––––––––––––––––––––––––––––––––
DR6 0.00 dB -7.33 dB 4:18 01-You and Me
DR6 0.00 dB -8.07 dB 5:54 02-Why
DR5 0.00 dB -7.57 dB 3:28 03-Looking Back
DR6 0.00 dB -8.48 dB 4:49 04-Tell Me
DR7 0.00 dB -8.89 dB 4:09 05-I Can't Find the One for Me
DR8 0.00 dB -11.20 dB 4:26 06-Look at the Song in My Eyes
DR6 0.00 dB -7.26 dB 4:48 07-Home Is Where the Heart Is
DR5 0.00 dB -5.27 dB 2:38 08-My Baby
DR7 -0.04 dB -9.61 dB 5:25 09-Refugee
DR5 0.00 dB -8.27 dB 6:56 10-Mafia
DR9 0.00 dB -12.45 dB 3:35 11-Sunshine
DR5 0.00 dB -8.26 dB 3:28 12-Nobody's Home
DR10 0.00 dB -14.03 dB 2:46 13-Right to Fail
DR7 0.00 dB -7.47 dB 4:16 14-Bring It on Back
DR7 0.00 dB -10.34 dB 5:16 15-You and Me (Acoustic)
––––––––––––––––––––––––––––––––––––––––

Number of tracks: 15
Official DR value: DR6

Samplerate: 48000 Hz
Channels: 2
Bits per sample: 24
Bitrate: 1499 kbps
Codec: FLAC
================================================================================


Thanks to the Original customer.