Tags
Language
Tags

Daryl Hall - Can't Stop Dreaming (1996/2003)

Posted By: v3122
Daryl Hall - Can't Stop Dreaming (1996/2003)

Daryl Hall - Can't Stop Dreaming (1996/2003)
FLAC (Tracks) 24-bit/44.1 kHz | Official Digital Download | Time: 00:52:02
Pop Rock | Label: BMG Rights Management | ~ 632 Mb

Can't Stop Dreaming has a rather tangled release history. It was originally issued in Japan in 1997 on the BMG International label, and in 2003 it appeared in America but missing two tracks. Anyway, as those who witnessed the resurgence of Hall & Oates will attest, Hall has never sounded better. His vocal range is all that it once was and more. He is still, along with his main collaborator, Alan Gorrie from the Average White Band, a talented pop songwriter – though admittedly pop music itself has changed by its very nature in the early 21st century. Pop itself no longer has a space for what is timeless and dateless. Hall's smooth hooks, tight love songs, and crisp arrangements are timeless but not timely and that's far from his fault. Tracks such as "Cab Driver," with its sheeny Steely Dan feel, and the Marvin Gaye/Leon Ware-inspired "Let Me Be the One" are classic in virtually every way, especially vocally. Hall doesn't reach for notes at all anymore, they just come, flowing up from the pit of his belly like a river expressing itself as a waterfall of intonation and melodic invention most jazz singers would give their eye teeth for. Only Al Green is Hall's equal in the contemporary soul genre. His disciplined singing graces the deep, mysterious funk of "Never Let Me Go," with its roiling basslines, and the spare acoustic ballad "Holding Out for Love." The big surprise is in the remake of the Hall & Oates classic "She's Gone" near the end of the album with a thoroughly (post)modern arrangement with a subtle drum loop. If ever a song didn't need to be recut, this is it. It was perfect the first time around. That said, Hall's new read of the tune as an older man singing his grief – in higher pitch – is as authentic and spine-tingling as the original. While the backing vocals lack a little of the deep soul the duo's version had, the smooth gospel flavor inherent in them and restrained exuberance of Hall's delivery make the song a much more reflective and sorrowful expression, and it's dynamite. The slick, mat black and chrome disco surfaces of "All by Myself" and "Fools Rush In" have Hall revealing that there is still plenty of life in that form of songwriting and recording. With all the guitars careening over a babbling-brook bassline and Hall punctuating each bar with his vocal acrobatics, these songs become dancefloor necessities. In sum, Can't Stop Dreaming works as an album for listening or dancing too. It also works on another, much more intimate level.

by Thom Jurek, allmusic
Daryl Hall - Can't Stop Dreaming (1996/2003):

Tracklist:

01 - Can't Stop Dreaming (00:04:13)
02 - Let Me Be the One (00:04:55)
03 - Cab Driver (00:05:22)
04 - Never Let Me Go (00:04:29)
05 - Holding Out for Love (00:03:57)
06 - Justify (00:03:57)
07 - What's in Your World (00:05:50)
08 - Hold On to Me (00:04:36)
09 - She's Gone (00:05:16)
10 - All by Myself (00:05:01)
11 - Fools Rush In (00:04:22)

foobar2000 1.4.2 / Dynamic Range Meter 1.1.1
log date: 2021-08-07 10:18:10

––––––––––––––––––––––––––––––––––––––––
Analyzed: Daryl Hall / Can't Stop Dreaming
––––––––––––––––––––––––––––––––––––––––

DR Peak RMS Duration Track
––––––––––––––––––––––––––––––––––––––––
DR7 -1.38 dB -9.54 dB 4:13 01-Can't Stop Dreaming
DR7 -1.38 dB -9.55 dB 4:56 02-Let Me Be the One
DR7 -1.38 dB -10.25 dB 5:22 03-Cab Driver
DR6 -1.38 dB -9.04 dB 4:30 04-Never Let Me Go
DR7 -1.38 dB -10.45 dB 3:57 05-Holding Out for Love
DR7 -1.38 dB -9.92 dB 3:58 06-Justify
DR7 -1.38 dB -10.23 dB 5:50 07-What's in Your World
DR7 -1.38 dB -10.26 dB 4:36 08-Hold On to Me
DR8 -1.38 dB -10.76 dB 5:16 09-She's Gone
DR7 -1.38 dB -10.16 dB 5:01 10-All by Myself
DR7 -1.38 dB -10.00 dB 4:23 11-Fools Rush In
––––––––––––––––––––––––––––––––––––––––

Number of tracks: 11
Official DR value: DR7

Samplerate: 44100 Hz
Channels: 2
Bits per sample: 24
Bitrate: 1679 kbps
Codec: FLAC

All thanks go to the original releaser

Daryl Hall in my Blog

Download Daryl Hall - Can't Stop Dreaming (1996/2003):