David Aaron Carpenter - Motherland (2018) [Official Digital Download 24/96]

Posted By: SERTiL
David Aaron Carpenter - Motherland (2018) [Official Digital Download 24/96]

David Aaron Carpenter - Motherland (2018)
FLAC (tracks) 24-bit/96 kHz | Time - 154:35 minutes | 2.73 GB
Studio Master, Official Digital Download | Artwork: Digital Booklet

For his second Warner Classics album, David Aaron Carpenter - "a star violist" in the words of the Los Angeles Times - brings together concertos by Dvořák, Bartók, Walton and a dance cycle by contemporary composer Alexey Shor. Carpenter identifies a connecting theme of "a longing for the homeland … a reverence for native musical folk tunes and language." He is accompanied by the London Philharmonic Orchestra under three distinguished conductors: Kazushi Ono, Vladimir Jurowski and David Parry.

Tracklist:
1. Cello Concerto, Op. 104: I. Allegro (arranged by Carpenter) 14:20
2. Cello Concerto, Op. 104: II. Adagio, ma non troppo 11:35
3. Cello Concerto, Op. 104: III. Finale (Allegro moderato) 12:08
4. Viola Concerto, Sz. 120, BB 128: I. Moderato 11:54
5. Viola Concerto, Sz. 120, BB 128: II. Adagio religioso 03:39
6. Viola Concerto, Sz. 120, BB 128: III. Allegro vivace 04:31
7. Seascapes: I. Abandoned Lighthouse 05:53
8. Seascapes: II. Lonely Sail 04:29
9. Seascapes: III. Gathering Storm 03:48
10. Seascapes: IV. Summer Hail 04:03
11. Viola Concerto: I. Andante comodo 08:28
12. Viola Concerto: II. Vivo, e molto preciso 04:21
13. Viola Concerto: III. Allegro moderato 12:33
14. Lullaby for Mark 03:23
15. Natalie's Waltz 03:30
16. The Well Tempered Chanson: I. Murka Metamorphoses 03:35
17. The Well Tempered Chanson: II. Trans-Siberian Waltz 02:56
18. The Well Tempered Chanson: III. 7.40 Samba 03:11
19. The Well Tempered Chanson: IV. Baroken Love 02:50
20. The Well Tempered Chanson: V. Last Penny 03:41
21. The Well Tempered Chanson: VI. Odessa Walk 03:06
22. The Well Tempered Chanson: VII. Buenos Aires Bonbons 03:30
23. The Well Tempered Chanson: VIII. Chicken Tarantella 03:48
24. The Well Tempered Chanson: IX. Nostalgic Waltz 04:22
25. The Well Tempered Chanson: X. Buggy Bossa Nova 04:10
26. The Well Tempered Chanson: XI. Semi-Cannonical Great Feud 03:01
27. The Well Tempered Chanson: XII. Lament 04:22
28. The Well Tempered Chanson: XIII. Murka Variations 03:27

Composers:
Bartók, Béla (1881-1945)
Dvorak, Antonin (1841-1904)
Shor, Alexey (b.1970)
Walton, William Turner (1902-83)

Personnel:
David Aaron Carpenter, viola
London Philharmonic Orchestra
Kazushi Ono, conductor
Vladimir Jurowski, conductor
David Parry, conductor

foobar2000 1.3.7 / Dynamic Range Meter 1.1.1
log date: 2018-04-20 22:04:24

––––––––––––––––––––––––––––––––––––––––
Analyzed: David Aaron Carpenter, Kristina Blaumane, London Philharmonic Orchestra & David Parry / Motherland (1)
David Aaron Carpenter, London Philharmonic Orchestra & David Parry / Motherland (2-18)
David Aaron Carpenter, London Philharmonic Orchestra & Kazushi Ono / Motherland (19-21)
David Aaron Carpenter, London Philharmonic Orchestra & Vladimir Jurowski / Motherland (22-24)
David Aaron Carpenter, London Philharmonic Orchestra & William Walton / Motherland (25-27)
David Aaron Carpenter, Sean Carpenter, London Philharmonic Orchestra & David Parry / Motherland (28)
––––––––––––––––––––––––––––––––––––––––

DR Peak RMS Duration Track
––––––––––––––––––––––––––––––––––––––––
DR16 -1.28 dB -21.80 dB 3:42 20-The Well Tempered Chanson: V. Last Penny
DR15 -1.31 dB -21.00 dB 5:53 07-Seascapes: I. Abandoned Lighthouse
DR13 -3.20 dB -23.32 dB 4:30 08-Seascapes: II. Lonely Sail
DR13 -0.11 dB -19.07 dB 3:49 09-Seascapes: III. Gathering Storm
DR14 -2.68 dB -21.33 dB 4:03 10-Seascapes: IV. Summer Hail
DR12 -5.14 dB -21.51 dB 3:23 14-Lullaby for Mark
DR13 -4.75 dB -23.16 dB 3:30 15-Natalie's Waltz
DR14 -0.15 dB -20.80 dB 3:35 16-The Well Tempered Chanson: I. Murka Metamorphoses
DR12 -7.03 dB -23.89 dB 2:56 17-The Well Tempered Chanson: II. Trans-Siberian Waltz
DR15 -0.04 dB -18.87 dB 3:12 18-The Well Tempered Chanson: III. 7.40 Samba
DR12 -0.12 dB -17.32 dB 2:50 19-The Well Tempered Chanson: IV. Baroken Love
DR14 -0.16 dB -19.88 dB 3:07 21-The Well Tempered Chanson: VI. Odessa Walk
DR15 -0.13 dB -19.73 dB 3:30 22-The Well Tempered Chanson: VII. Buenos Aires Bonbons
DR14 -0.05 dB -19.40 dB 3:49 23-The Well Tempered Chanson: VIII. Chicken Tarantella
DR13 -4.20 dB -21.51 dB 4:23 24-The Well Tempered Chanson: IX. Nostalgic Waltz
DR14 -0.44 dB -20.67 dB 4:11 25-The Well Tempered Chanson: X. Buggy Bossa Nova
DR14 -4.35 dB -23.84 dB 4:22 27-The Well Tempered Chanson: XII. Lament
DR16 -0.12 dB -20.81 dB 3:28 28-The Well Tempered Chanson: XIII. Murka Variations
DR14 -0.09 dB -19.97 dB 14:21 01-Cello Concerto, Op. 104: I. Allegro (arranged by Carpenter)
DR17 -0.93 dB -24.30 dB 11:36 02-Cello Concerto, Op. 104: II. Adagio, ma non troppo
DR15 -0.17 dB -21.22 dB 12:09 03-Cello Concerto, Op. 104: III. Finale (Allegro moderato)
DR16 -0.10 dB -21.29 dB 11:55 04-Viola Concerto, Sz. 120, BB 128: I. Moderato
DR15 -2.16 dB -23.25 dB 3:39 05-Viola Concerto, Sz. 120, BB 128: II. Adagio religioso
DR14 -0.20 dB -19.54 dB 4:32 06-Viola Concerto, Sz. 120, BB 128: III. Allegro vivace
DR15 -2.13 dB -22.48 dB 8:29 11-Viola Concerto: I. Andante comodo
DR14 -0.17 dB -18.99 dB 4:22 12-Viola Concerto: II. Vivo, e molto preciso
DR14 -0.18 dB -19.86 dB 12:34 13-Viola Concerto: III. Allegro moderato
DR13 -0.12 dB -17.84 dB 3:01 26-The Well Tempered Chanson: XI. Semi-Cannonical Great Feud
––––––––––––––––––––––––––––––––––––––––

Number of tracks: 28
Official DR value: DR14

Samplerate: 96000 Hz
Channels: 2
Bits per sample: 24
Bitrate: 2640 kbps
Codec: FLAC
================================================================================


Thanks to the Original customer.