David Fray - Bach Partitas Nos 2 & 6, Toccata in C Minor (2013) [Official Digital Download 24/96] RE-POST

Posted By: SERTiL
David Fray - Bach Partitas Nos 2 & 6, Toccata in C Minor (2013) [Official Digital Download 24/96] RE-POST

David Fray - Bach Partitas Nos 2 & 6, Toccata in C Minor (2013)
FLAC (tracks) 24-bit/88.2 kHz | Time - 65:20 minutes | 952 MB
Studio Master, Official Digital Download | Artwork: Digital Booklet

David Fray, described as “perhaps the most inspired, certainly the most original Bach-player of his generation,” launched his Virgin Classics career with Bach and this is his third album to feature the composer’s keyboard music. “We shouldn’t be afraid of acknowledging the expressiveness of Bach’s music,” says Fray. “The Romantics don’t have a monopoly on expressivity!”

With this recital, David Fray returns to Bach, who featured on his first Virgin Classics release some five years ago, when the Partita No 4 and one of the French suites were programmed in illuminating (and prizewinning) fashion with pieces by Pierre Boulez. The recital was followed by a recording devoted entirely to Bach: keyboard concertos with the Deutsche Kammerphilharmonie Bremen.

“We shouldn’t be afraid of acknowledging the expressiveness of Bach’s music,” Fray has said. “The Romantics don’t have a monopoly on expressivity!” The German news magazine Spiegel, observing that “he discovers more psychological depth, more well-rounded stories and more refined emotions than his colleagues,” described Fray as “perhaps the most inspired, certainly the most original Bach-player of his generation”.

“It’s much more interesting to study Bach’s approach to the orchestra in the Magnificat or the Christmas Oratorio than to read books on how to play Bach on the piano,” continues Fray, “I try to make music like a conductor, not just as a pianist … The piano constitutes a way of getting nearer the heart of the music. How do you balance the voices? How do you find a progression in a movement? How do you put the polyphony in place?”

Gramophone has spoken of Fray’s “unselfregarding mastery and musical maturity,” and the “intimate, poetic spell” cast by his Bach with its “gorgeous tone and ravishingly shaded trills,” while The New York Times has praised his “articulate touch, splendid command of shadings and nimble finger work,” describing how “he brings a fluid sense of rhythm and much sparkle to Bach's D major Partita.”

In his native France, Pianiste magazine has written of “a great limpidity in his piano sound … both seraphic and intense, with tightly controlled sonorities … David Fray delivers a penetrating vision of these works [the Bach concertos]… Beneath his fingers they become magisterial to a degree we had forgotten.” Le Monde de la musique, also discussing the Bach concerto album, declared that: “The interpretation is always generous, enthusiastic and rich in contrasts. The fast movements appeal with their healthy energy, exuberant humour in their finales and lyricism throughout. No moments of tension stiffen the pianist’s phrases and he gives free rein to the sound.” Le Figaro, meanwhile, highlighted “an incredible flexibility in the way he engages with the score. If you want Bach that is airy, imbued with an expressivity that the authenticists are not always in a position to supply, then this disc is for you … David Fray’s fluidity is worthy of his idol, Wilhelm Kempff … His playing is ruled by a dancing, questioning spirit.”



Tracklist:

Johann Sebastian Bach (1685-1750)

01. Partita No. 2 in C Minor, BWV 826: I. Sinfonia (Grave. Adagio)-Andante
02. Partita No. 2 in C Minor, BWV 826: II. Allemande
03. Partita No. 2 in C Minor, BWV 826: III. Courante
04. Partita No. 2 in C Minor, BWV 826: IV. Sarabande
05. Partita No. 2 in C Minor, BWV 826: V. Rondeaux
06. Partita No. 2 in C Minor, BWV 826: VI. Capriccio
07. Toccata in C Minor, BWV 911
08. Partita No. 6 in E Minor, BWV 830: I. Toccata
09. Partita No. 6 in E Minor, BWV 830: II. Allemande
10. Partita No. 6 in E Minor, BWV 830: III. Corrente
11. Partita No. 6 in E Minor, BWV 830: IV. Air
12. Partita No. 6 in E Minor, BWV 830: V. Sarabande
13. Partita No. 6 in E Minor, BWV 830: VI. Tempo di Gavotta
14. Partita No. 6 in E Minor, BWV 830: VII. Gigue

Personnel:
David Fray (piano)

foobar2000 1.3.7 / Dynamic Range Meter 1.1.1
log date: 2017-11-24 19:21:48

––––––––––––––––––––––––––––––––––––––––
Analyzed: David Fray / Bach: Partitas Nos 2 & 6, Toccata in C Minor
––––––––––––––––––––––––––––––––––––––––

DR Peak RMS Duration Track
––––––––––––––––––––––––––––––––––––––––
DR12 -3.51 dB -20.39 dB 4:34 01-Partita No. 2 in C Minor, BWV 826: I. Sinfonia (Grave. Adagio)-Andante
DR13 -4.21 dB -23.78 dB 4:44 02-Partita No. 2 in C Minor, BWV 826: II. Allemande
DR11 -5.51 dB -18.59 dB 2:12 03-Partita No. 2 in C Minor, BWV 826: III. Courante
DR12 -6.44 dB -25.86 dB 3:43 04-Partita No. 2 in C Minor, BWV 826: IV. Sarabande
DR12 -3.62 dB -20.13 dB 1:20 05-Partita No. 2 in C Minor, BWV 826: V. Rondeaux
DR12 -2.15 dB -18.14 dB 3:08 06-Partita No. 2 in C Minor, BWV 826: VI. Capriccio
DR13 -2.55 dB -21.05 dB 10:14 07-Toccata in C Minor, BWV 911
DR13 -4.39 dB -23.05 dB 9:32 08-Partita No. 6 in E Minor, BWV 830: I. Toccata
DR13 -6.85 dB -24.07 dB 4:09 09-Partita No. 6 in E Minor, BWV 830: II. Allemande
DR13 -3.27 dB -19.76 dB 4:27 10-Partita No. 6 in E Minor, BWV 830: III. Corrente
DR13 -2.56 dB -20.96 dB 1:22 11-Partita No. 6 in E Minor, BWV 830: IV. Air
DR14 -4.23 dB -24.07 dB 7:32 12-Partita No. 6 in E Minor, BWV 830: V. Sarabande
DR11 -5.31 dB -19.08 dB 1:44 13-Partita No. 6 in E Minor, BWV 830: VI. Tempo di Gavotta
DR11 -4.26 dB -18.35 dB 6:47 14-Partita No. 6 in E Minor, BWV 830: VII. Gigue
––––––––––––––––––––––––––––––––––––––––

Number of tracks: 14
Official DR value: DR12

Samplerate: 88200 Hz
Channels: 2
Bits per sample: 24
Bitrate: 2167 kbps
Codec: FLAC
================================================================================


Thanks to the Original customer.