David Bowie - Metrobolist (aka The Man Who Sold The World) [2020 Mix] (2020) [Official Digital Download 24/96]

Posted By: pyatak
David Bowie - Metrobolist (aka The Man Who Sold The World) [2020 Mix] (2020) [Official Digital Download 24/96]

David Bowie - Metrobolist (aka The Man Who Sold The World) [2020 Mix] (2020) [Official Digital Download 24/96]
FLAC (tracks) 24-bit/96 kHz | Front Cover | Time - 41:03 minutes | 894 MB
Pop, Rock | Label: Parlophone UK, Official Digital Download

November 2020 sees the 50th Anniversary of the release of David Bowie’s The Man Who Sold The World in North America. The album marks the beginning of a collaboration with guitarist Mick Ronson that would last through classic works including Hunky Dory, Ziggy Stardust and Aladdin Sane, as well as the first in a 10-year series of indispensable albums stretching through 1980’s Scary Monsters

Originally titled Metrobolist, the album's name was changed at the last minute to The Man Who Sold The World, the original stereo master tapes were in fact labelled Metrobolist, with the title ultimately crossed out. The 2020 re-release of the album under its Metrobolist moniker has been remixed by original producer Tony Visconti, with the exception of the track ‘After All’ which Tony considered perfect as is, and is featured in its 2015 remaster incarnation.

The Metrobolist 50th anniversary artwork has been created by Mike Weller who was behind the historically controversial “dress” cover which Mercury Records refused to release.

TRACKLIST

1. David Bowie - The Width Of A Circle (2020 Mix)
2. David Bowie - All The Madmen (2020 Mix)
3. David Bowie - Black Country Rock (2020 Mix)
4. David Bowie - After All (2015 Remaster)
5. David Bowie - Running Gun Blues (2020 Mix)
6. David Bowie - Saviour Machine (2020 Mix)
7. David Bowie - She Shook Me Cold (2020 Mix)
8. David Bowie - The Man Who Sold The World (2020 Mix)
9. David Bowie - The Supermen (2020 Mix)

foobar2000 1.6.2 / Dynamic Range Meter 1.1.1
log date: 2020-11-06 00:49:03

––––––––––––––––––––––––––––––––––––––––
Analyzed: David Bowie / Metrobolist (aka The Man Who Sold The World) [2020 Mix]
––––––––––––––––––––––––––––––––––––––––

DR Peak RMS Duration Track
––––––––––––––––––––––––––––––––––––––––
DR8 -0.10 dB -9.77 dB 8:10 01-The Width Of A Circle (2020 Mix)
DR9 -0.10 dB -11.05 dB 5:26 02-All The Madmen (2020 Mix)
DR8 -0.10 dB -9.44 dB 3:37 03-Black Country Rock (2020 Mix)
DR11 -0.10 dB -14.33 dB 4:00 04-After All (2015 Remaster)
DR8 -0.10 dB -10.35 dB 3:20 05-Running Gun Blues (2020 Mix)
DR9 -0.10 dB -10.23 dB 4:30 06-Saviour Machine (2020 Mix)
DR9 -0.10 dB -10.42 dB 4:15 07-She Shook Me Cold (2020 Mix)
DR9 -0.10 dB -10.42 dB 4:04 08-The Man Who Sold The World (2020 Mix)
DR8 -0.10 dB -9.33 dB 3:46 09-The Supermen (2020 Mix)
––––––––––––––––––––––––––––––––––––––––

Number of tracks: 9
Official DR value: DR9

Samplerate: 96000 Hz
Channels: 2
Bits per sample: 24
Bitrate: 3120 kbps
Codec: FLAC
================================================================================



Thanks to the Original customer.