Tags
Language
Tags
January 2023
Su Mo Tu We Th Fr Sa
1 2 3 4 5 6 7
8 9 10 11 12 13 14
15 16 17 18 19 20 21
22 23 24 25 26 27 28
29 30 31 1 2 3 4

David Bowie - Black Tie White Noise (2021 Remaster) (1993/2021) [Official Digital Download 24/96]

Posted By: pyatak
David Bowie - Black Tie White Noise (2021 Remaster) (1993/2021) [Official Digital Download 24/96]

David Bowie - Black Tie White Noise (2021 Remaster) (1993/2021) [Official Digital Download 24/96]
FLAC (tracks) 24-bit/96 kHz | Front Cover | Time - 56:35 minutes | 1,23 GB
Rock | Studio Master, Official Digital Download

Black Tie White Noise was the beginning of David Bowie's return from the wilderness of post-Let's Dance, the first indication that he was regaining his creative spark. To say as much suggests that it's a bit of a lost classic, when it's rather a sporadically intriguing transitional album, finding Bowie balancing the commercial dance-rock of Let's Dance with artier inclinations from his Berlin period, all the while trying to draw on the past by working with former Spider from Mars guitarist Mick Ronson, collaborating with Let's Dance producer Nile Rodgers, and even covering inspiration Scott Walker's "Nite Flights." On top of that, the record was inspired by his recent marriage to supermodel Iman – the record is bookended with "The Wedding" and "The Wedding Song" – and then tied up and presented as a sophisticated modern urban soul record, one that draws from uptown soul (including, rather bafflingly, a duet with Al B. Sure!) and state-of-the-art dance-club techno, while adding splashy touches like solos from avant jazz trumpeter Lester Bowie and a nod to modern alt-rock via a nifty cover of Morrissey's "I Know It's Gonna Happen Someday." That's a lot of stuff for one record to handle, so it shouldn't come as a great surprise that the album doesn't always work, but its stylish restlessness comes as a great relief, particularly when compared to the hermetically sealed previous solo Bowie record, 1987's Never Let Me Down. Black Tie White Noise displays greater musical ambition than any record he'd made since Scary Monsters, and while much of the record feels like unrealized ideas, there are songs where it all gels, like on the paranoid jumble of "Jump They Say," the aforementioned covers, the impassioned "You've Been Around," and the self-consciously smooth title track. Moments like these are the first in a long time to feel classically Bowie, and they point ahead toward the more interesting records he made in the second half of the '90s, but they are encased in a production that not only sounds dated years later, but sounded dated upon its release in the spring of 1993, two years into the thick of alternative rock. At that point, the club-centric, mainstream-courting Black Tie White Noise seemed as an anachronism during the guitar-heavy grunge-n-industrial glory days – something Bowie tacitly acknowledged with its 1995 successor, Outside, which was every bit as gloomy as a Nine Inch Nails record – but separated from the vagaries of fashion, it's an interesting first step in Bowie's creative revival.

TRACKLIST

1. David Bowie - The Wedding (2021 Remaster)
2. David Bowie - You've Been Around (2021 Remaster)
3. David Bowie - I Feel Free (2021 Remaster)
4. David Bowie - Black Tie White Noise (2021 Remaster)
5. David Bowie - Jump They Say (2021 Remaster)
6. David Bowie - Nite Flights (2021 Remaster)
7. David Bowie - Pallas Athena (2021 Remaster)
8. David Bowie - Miracle Goodnight (2021 Remaster)
9. David Bowie - Don't Let Me Down & Down (2021 Remaster)
10. David Bowie - Looking For Lester (2021 Remaster)
11. David Bowie - I Know It's Gonna Happen Someday (2021 Remaster)
12. David Bowie - The Wedding Song (2021 Remaster)

foobar2000 1.6.2 / Dynamic Range Meter 1.1.1
log date: 2021-11-26 04:36:44

––––––––––––––––––––––––––––––––––––––––
Analyzed: David Bowie / Black Tie White Noise
––––––––––––––––––––––––––––––––––––––––

DR Peak RMS Duration Track
––––––––––––––––––––––––––––––––––––––––
DR9 -0.60 dB -11.57 dB 5:07 01-The Wedding (2021 Remaster)
DR10 -0.60 dB -11.94 dB 4:44 02-You've Been Around (2021 Remaster)
DR10 -0.60 dB -12.02 dB 4:52 03-I Feel Free (2021 Remaster)
DR10 -0.59 dB -11.61 dB 4:54 04-Black Tie White Noise (2021 Remaster)
DR9 -0.59 dB -11.75 dB 4:23 05-Jump They Say (2021 Remaster)
DR10 -0.60 dB -11.61 dB 4:38 06-Nite Flights (2021 Remaster)
DR9 -0.58 dB -11.39 dB 4:40 07-Pallas Athena (2021 Remaster)
DR10 -0.58 dB -11.87 dB 4:13 08-Miracle Goodnight (2021 Remaster)
DR11 -0.59 dB -13.33 dB 4:55 09-Don't Let Me Down & Down (2021 Remaster)
DR10 -0.60 dB -11.37 dB 5:37 10-Looking For Lester (2021 Remaster)
DR10 -0.60 dB -11.99 dB 4:07 11-I Know It's Gonna Happen Someday (2021 Remaster)
DR9 -0.60 dB -11.25 dB 4:30 12-The Wedding Song (2021 Remaster)
––––––––––––––––––––––––––––––––––––––––

Number of tracks: 12
Official DR value: DR10

Samplerate: 96000 Hz
Channels: 2
Bits per sample: 24
Bitrate: 3068 kbps
Codec: FLAC
================================================================================



Thanks to the Original customer.