David Reichelt - Hindafing (Original Motion Picture Soundtrack) (2019) [Official Digital Download 24/96]

Posted By: Pisulik
David Reichelt - Hindafing (Original Motion Picture Soundtrack) (2019) [Official Digital Download 24/96]

David Reichelt - Hindafing (Original Motion Picture Soundtrack) (2019)
FLAC (tracks) 24-bit/96 kHz | Time - 52:02 minutes | 886 MB
Studio Master, Official Digital Download | Artwork: Front cover

Original Television Soundtrack for the series Hindafing Season 2 (2019). The music was composed by David Reichelt who is composing music to 8 Tage and Konig Laurin. Hindafing is a 2017-2019 German comedy-drama television series directed by Boris Kunz. The series stars Maximilian Brückner, Andreas Giebel, Katrin Röver, Petra Berndt, Heinz-Josef Braun, Michael Kranz, Roland Schreglmann, Johanna Bittenbinder.

Tracklist:

1 Now We Have a Problem!
2 Mahmud Service
3 Trap
4 Hunting
5 Desperate
6 Cancer
7 Manipulation
8 Conspiracy
9 Dealing Weapons
10 Stand in Line
11 Pressure
12 Achievements
13 We’re Broke
14 Drugs
15 Hidden Champion
16 Proof of Identity
17 The Audience
18 Confession
19 Arrest
20 Sheep and Wolves
21 Hidden Attack
22 Delivering Messages
23 Not Again
24 The Man of the Hour
25 Tactical Failure
26 Fear of Loss
27 Finale

foobar2000 1.3.7 / Dynamic Range Meter 1.1.1
log date: 2019-12-03 02:00:21

––––––––––––––––––––––––––––––––––––––––
Analyzed: David Reichelt / Hindafing (Original Motion Picture Soundtrack)
––––––––––––––––––––––––––––––––––––––––

DR Peak RMS Duration Track
––––––––––––––––––––––––––––––––––––––––
DR6 -1.02 dB -9.56 dB 3:23 01-Now We Have a Problem!
DR5 -1.02 dB -8.73 dB 1:11 02-Mahmud Service
DR9 -1.02 dB -13.10 dB 1:32 03-Trap
DR8 -1.02 dB -11.42 dB 2:26 04-Hunting
DR9 -1.03 dB -12.76 dB 0:58 05-Desperate
DR9 -1.02 dB -12.34 dB 1:44 06-Cancer
DR8 -1.02 dB -11.53 dB 1:50 07-Manipulation
DR9 -1.02 dB -13.46 dB 3:43 08-Conspiracy
DR10 -1.02 dB -14.57 dB 1:52 09-Dealing Weapons
DR7 -1.02 dB -10.51 dB 1:11 10-Stand in Line
DR10 -1.02 dB -13.55 dB 1:24 11-Pressure
DR8 -1.02 dB -10.39 dB 1:10 12-Achievements
DR10 -1.02 dB -14.73 dB 1:23 13-We're Broke
DR7 -1.02 dB -11.20 dB 3:14 14-Drugs
DR7 -1.02 dB -9.97 dB 1:39 15-Hidden Champion
DR10 -1.02 dB -14.18 dB 2:39 16-Proof of Identity
DR8 -1.02 dB -12.04 dB 0:52 17-The Audience
DR17 -2.11 dB -22.61 dB 0:45 18-Confession
DR7 -1.02 dB -12.06 dB 3:18 19-Arrest
DR8 -1.02 dB -11.46 dB 2:13 20-Sheep and Wolves
DR8 -1.02 dB -12.24 dB 2:04 21-Hidden Attack
DR9 -1.02 dB -12.75 dB 1:03 22-Delivering Messages
DR7 -1.02 dB -11.38 dB 2:43 23-Not Again
DR9 -1.02 dB -13.37 dB 2:33 24-The Man of the Hour
DR11 -1.02 dB -14.34 dB 1:26 25-Tactical Failure
DR9 -1.02 dB -12.54 dB 2:14 26-Fear of Loss
DR9 -1.02 dB -12.20 dB 1:32 27-Finale
––––––––––––––––––––––––––––––––––––––––

Number of tracks: 27
Official DR value: DR9

Samplerate: 96000 Hz
Channels: 2
Bits per sample: 24
Bitrate: 2374 kbps
Codec: FLAC
================================================================================


All thanks go to the original releaser