Tags
Language
Tags

Dead Or Alive - Fragile (Deluxe Edition) (2021) [Official Digital Download]

Posted By: pyatak
Dead Or Alive - Fragile (Deluxe Edition) (2021) [Official Digital Download]

Dead Or Alive - Fragile (Deluxe Edition) (2000/2021) [Official Digital Download]
FLAC (tracks) 24-bit/44.1 kHz | Front Cover | Time - 97:18 minutes | 1,16 GB
Rock, Electronic, Dance | Label: Edsel, Official Digital Download

Fragile is the Band’s seventh and final studio album and was only released in Japan in 2000 - reaching number 45 on the Oricon Album Chart - until a re-worked version was included within the Sophisticated Boom Box MMXVI box set in 2016. Their first and only single from the album, Hit And Run Lover, reached number 2 on the Oricon Singles Chart in Japan.

This special 20th Anniversary Edition of Fragile is the first time that the album has been commercially released on vinyl in its original configuration, with original playing durations and is pressed on 180g heavyweight red colour vinyl.

TRACKLIST

01. Dead Or Alive - Hit and Run Lover
02. Dead Or Alive - Turn Around and Count 2 Ten (2000)
03. Dead Or Alive - Something in My House (2000)
04. Dead Or Alive - Even Better Than the Real Thing (2000)
05. Dead Or Alive - I Paralyze
06. Dead Or Alive - Isn't It a Pity?
07. Dead Or Alive - You Spin Me Round (Like a Record) (2000)
08. Dead Or Alive - Just What I Always Wanted
09. Dead Or Alive - My Heart Goes Bang (2000)
10. Dead Or Alive - Lover Come Back to Me (2000)
11. Dead Or Alive - I Promised Myself
12. Dead Or Alive - Blue Christmas (2000)
13. Dead Or Alive - Hit and Run Lover (Hit Remix)
14. Dead Or Alive - I Paralyze (Instrumental)
15. Dead Or Alive - Hit and Run Lover (Instrumental)
16. Dead Or Alive - Hit and Run Lover (Acapella)
17. Dead Or Alive - Never Marry an Icon (Pete Burns vs. The Dirty Disco)
18. Dead Or Alive - The Art (Pete Burns vs. The Dirty Disco)
19. Dead Or Alive - Never Marry an Icon (Pete Burns vs. The Dirty Disco) (Instrumental)
20. Dead Or Alive - The Art (Pete Burns vs. The Dirty Disco) (Instrumental)
21. Dead Or Alive - Never Marry an Icon (Pete Burns vs. The Dirty Disco) (Acapella)
22. Dead Or Alive - The Art (Pete Burns vs. The Dirty Disco) (Acapella)

foobar2000 1.6.2 / Dynamic Range Meter 1.1.1
log date: 2021-04-03 13:31:14

––––––––––––––––––––––––––––––––––––––––
Analyzed: Dead Or Alive / Fragile (Deluxe Edition)
––––––––––––––––––––––––––––––––––––––––

DR Peak RMS Duration Track
––––––––––––––––––––––––––––––––––––––––
DR9 -0.50 dB -10.81 dB 4:42 01-Hit and Run Lover
DR8 -0.50 dB -9.58 dB 5:17 02-Turn Around and Count 2 Ten (2000)
DR8 -0.50 dB -9.52 dB 4:01 03-Something in My House (2000)
DR9 -0.50 dB -10.94 dB 3:06 04-Even Better Than the Real Thing (2000)
DR9 0.00 dB -11.12 dB 6:00 05-I Paralyze
DR10 -0.50 dB -12.28 dB 4:47 06-Isn't It a Pity?
DR8 -0.50 dB -10.77 dB 6:06 07-You Spin Me Round (Like a Record) (2000)
DR9 -0.50 dB -11.29 dB 5:20 08-Just What I Always Wanted
DR9 -0.50 dB -11.52 dB 5:06 09-My Heart Goes Bang (2000)
DR10 -0.50 dB -11.12 dB 5:39 10-Lover Come Back to Me (2000)
DR8 -0.50 dB -10.47 dB 4:34 11-I Promised Myself
DR9 -0.50 dB -11.63 dB 3:38 12-Blue Christmas (2000)
DR9 -0.50 dB -10.10 dB 4:40 13-Hit and Run Lover (Hit Remix)
DR7 -0.50 dB -8.66 dB 5:55 14-I Paralyze (Instrumental)
DR9 -0.50 dB -10.24 dB 4:42 15-Hit and Run Lover (Instrumental)
DR10 -0.50 dB -12.43 dB 4:09 16-Hit and Run Lover (Acapella)
DR7 -0.50 dB -8.63 dB 3:12 17-Never Marry an Icon (Pete Burns vs. The Dirty Disco)
DR7 -0.50 dB -9.72 dB 3:30 18-The Art (Pete Burns vs. The Dirty Disco)
DR5 0.00 dB -7.40 dB 3:11 19-Never Marry an Icon (Pete Burns vs. The Dirty Disco) (Instrumental)
DR8 -0.50 dB -10.14 dB 3:31 20-The Art (Pete Burns vs. The Dirty Disco) (Instrumental)
DR8 -0.50 dB -10.38 dB 3:06 21-Never Marry an Icon (Pete Burns vs. The Dirty Disco) (Acapella)
DR8 -0.50 dB -10.71 dB 3:08 22-The Art (Pete Burns vs. The Dirty Disco) (Acapella)
––––––––––––––––––––––––––––––––––––––––

Number of tracks: 22
Official DR value: DR8

Samplerate: 44100 Hz
Channels: 2
Bits per sample: 24
Bitrate: 1638 kbps
Codec: FLAC
================================================================================



Thanks to the Original customer.