Def Leppard - Hits Vegas (Live) (2020) [Official Digital Download]

Posted By: pyatak
Def Leppard - Hits Vegas (Live) (2020) [Official Digital Download]

Def Leppard - Hits Vegas (Live) (2020) [Official Digital Download]
FLAC (tracks) 24-bit/48 kHz | Front Cover | Time - 02:22:00 minutes | 1,9 GB
Rock | Label: Eagle Rock Entertainment, Official Digital Download

Def Leppard have released a trailer showing the contents of their new live package London To Vegas.

The new album celebrates two special occasions for the band: Hysteria At The O2 which was filmed and recorded in London, and Hits Vegas, Live At Planet Hollywood, which was captured during Def Leppard’s successful 2019 Sin City residency.

London To Vegas, which was originally due to launch last month, will be out on May 29 through Universal, with the Sheffield heroes previously sharing Paper Sun, Run Riot, Rocket and Billy’s Got A Gun.

A statement on London To Vegas reads: “Filmed in December 2018, Hysteria At The O2 captures Def Leppard celebrating the ground-breaking Hysteria, one of their two diamond-certified 10 x platinum albums –the other being Pyromania.

“Performed in its entirety before a ravenous sold-out crowd, this momentous homecoming event is made all the more powerful as it was their long-awaited debut at the iconic O2 Arena in London.

TRACKLIST

1. Def Leppard - Die Hard The Hunter
2. Def Leppard - Animal
3. Def Leppard - Excitable
4. Def Leppard - Foolin'
5. Def Leppard - Too Late For Love
6. Def Leppard - Billy's Got A Gun
7. Def Leppard - Slang
8. Def Leppard - Promises
9. Def Leppard - Paper Sun
10. Def Leppard - Let It Go
11. Def Leppard - Mirror, Mirror (Look Into My Eyes)
12. Def Leppard - Bringin' On The Heartbreak
13. Def Leppard - Switch 625
14. Def Leppard - Let Me Be The One
15. Def Leppard - We Belong
16. Def Leppard - Have You Ever Needed Someone So Bad
17. Def Leppard - Two Steps Behind
18. Def Leppard - Now
19. Def Leppard - Rocket
20. Def Leppard - Let's Get Rocked
21. Def Leppard - Hysteria
22. Def Leppard - Love Bites
23. Def Leppard - Armageddon It
24. Def Leppard - Pour Some Sugar On Me
25. Def Leppard - Let's Go
26. Def Leppard - Action
27. Def Leppard - Rock Of Ages
28. Def Leppard - Photograph

foobar2000 1.3.16 / Dynamic Range Meter 1.1.1
log date: 2020-05-28 21:54:03

––––––––––––––––––––––––––––––––––––––––
Analyzed: Def Leppard / Hits Vegas (Live)
––––––––––––––––––––––––––––––––––––––––

DR Peak RMS Duration Track
––––––––––––––––––––––––––––––––––––––––
DR7 0.00 dB -7.56 dB 6:12 01-Die Hard The Hunter
DR7 0.00 dB -7.89 dB 4:06 02-Animal
DR7 0.00 dB -8.23 dB 4:29 03-Excitable
DR7 0.00 dB -7.98 dB 4:50 04-Foolin'
DR7 0.00 dB -8.33 dB 5:33 05-Too Late For Love
DR7 0.00 dB -8.01 dB 5:25 06-Billy's Got A Gun
DR7 0.00 dB -8.39 dB 2:53 07-Slang
DR7 0.00 dB -8.09 dB 4:17 08-Promises
DR7 0.00 dB -8.08 dB 5:27 09-Paper Sun
DR7 0.00 dB -8.13 dB 6:05 10-Let It Go
DR8 0.00 dB -8.44 dB 4:21 11-Mirror, Mirror (Look Into My Eyes)
DR7 0.00 dB -7.36 dB 4:38 12-Bringin' On The Heartbreak
DR7 0.00 dB -7.94 dB 6:12 13-Switch 625
DR8 0.00 dB -9.18 dB 3:30 14-Let Me Be The One
DR8 0.00 dB -10.01 dB 6:03 15-We Belong
DR8 0.00 dB -8.98 dB 4:48 16-Have You Ever Needed Someone So Bad
DR8 0.00 dB -9.77 dB 4:59 17-Two Steps Behind
DR7 0.00 dB -8.10 dB 4:04 18-Now
DR7 0.00 dB -8.39 dB 6:34 19-Rocket
DR7 0.00 dB -8.09 dB 4:41 20-Let's Get Rocked
DR7 0.00 dB -7.93 dB 6:11 21-Hysteria
DR7 0.00 dB -8.30 dB 5:57 22-Love Bites
DR7 0.00 dB -8.03 dB 5:21 23-Armageddon It
DR8 0.00 dB -8.53 dB 4:44 24-Pour Some Sugar On Me
DR7 0.00 dB -8.58 dB 5:21 25-Let's Go
DR7 0.00 dB -8.55 dB 4:45 26-Action
DR7 0.00 dB -7.57 dB 5:02 27-Rock Of Ages
DR7 0.00 dB -8.01 dB 5:48 28-Photograph
––––––––––––––––––––––––––––––––––––––––

Number of tracks: 28
Official DR value: DR7

Samplerate: 48000 Hz
Channels: 2
Bits per sample: 24
Bitrate: 1934 kbps
Codec: FLAC
================================================================================



Thanks to the Original customer.