Diana Damrau - Wolf: Italienisches Liederbuch (Live) (2019) [Official Digital Download 24/96]

Posted By: SERTiL
Diana Damrau - Wolf: Italienisches Liederbuch (Live) (2019) [Official Digital Download 24/96]

Diana Damrau, Jonas Kaufmann & Helmut Deutsch - Wolf: Italienisches Liederbuch (Live) (2019)
FLAC (tracks) 24-bit/96 kHz | Time - 76:10 minutes | 1.18 GB
Studio Master, Official Digital Download | Artwork: Digital Booklet

Diana Damrau and Jonas Kaufmann, reigning stars of opera, are also consummate interpreters of song. In early 2018, with master pianist Helmut Deutsch, they performed Hugo Wolf’s multi-faceted Italienisches Liederbuch in 12 cities around Europe. “One couldn’t ask for more,” wrote the Telegraph after their London concert, which took place two days before this live recording was made in the German city of Essen.

Tracklist:
1. No. 1, "Auch kleine Dinge können uns entzücken" (Live) 02:09
2. No. 4, "Gesegnet sei, durch den die Welt entsund" (Live) 01:23
3. No. 39, "Gesegnet sei das Grün" (Live) 01:18
4. No. 3, "Ihr seid die Allerschönste" (Live) 01:38
5. No. 21, "Man sagt mir, deine Mutter woll es nicht" (Live) 01:01
6. No. 41, "Heut Nacht erhob ich mich um Mitternacht" (Live) 01:39
7. No. 40, "O wär dein Haus durchsichtig wie ein Glas" (Live) 01:29
8. No. 27, "Schon streckt' ich aus im Bett die müden Glieder" (Live) 01:43
9. No. 18, "Heb' auf dein blondes Haupt" (Live) 01:52
10. No. 20, "Mein Liebster singt am Haus" (Live) 01:27
11. No. 22, "Ein Ständchen Euch zu bringen" (Live) 01:19
12. No. 42, "Nicht länger kann ich singen" (Live) 01:08
13. No. 43, "Schweig einmal still" (Live) 00:58
14. No. 44, "O wüsstest du, wie viel ich deinetwegen" (Live) 01:31
15. No. 6, "Wer rief dich denn?" (Live) 01:07
16. No. 31, "Wie soll ich fröhlich sein" (Live) 01:34
17. No. 10, "Du denkst mit einem Fädchen mich zu fangen" (Live) 01:14
18. No. 14, "Geselle, woll'n wir uns in Kutten hüllen" (Live) 02:35
19. No. 45, "Verschling' der Abgrund meines Liebsten Hütte" (Live) 01:17
20. No. 8, "Nun lass uns Frieden schliessen" (Live) 01:58
21. No. 29, "Wohl kenn' ich Euren Stand" (Live) 01:44
22. No. 38, "Wenn du mich mit den Augen streifst" (Live) 01:41
23. No. 36, "Wenn du, mein Liebster, steigst zum Himmel auf" (Live) 01:32
24. No. 23, "Was für ein Lied soll dir gesungen werden" (Live) 01:50
25. No. 19, "Wir haben Beide lange Zeit geschwiegen" (Live) 01:59
26. No. 34, "Und steht Ihr früh am Morgen auf" (Live) 03:01
27. No. 16, "Ihr jungen Leute" (Live) 01:11
28. No. 9, "Dass doch gemalt all deine Reize wären" (Live) 01:52
29. No. 2, "Mir ward gesagt" (Live) 01:43
30. No. 17, "Und willst du deinen Liebsten sterben sehen" (Live) 02:11
31. No. 33, "Sterb' ich, so hüllt in Blumen meine Glieder" (Live) 02:45
32. No. 15, "Mein Liebster ist so klein" (Live) 01:43
33. No. 35, "Benedeit die sel'ge Mutter" (Live) 03:22
34. No. 24, "Ich esse nun mein Brot nicht trocken mehr" (Live) 01:47
35. No. 7, "Der Mond hat eine schwere Klag' erhoben" (Live) 01:45
36. No. 25, "Mein Liebster hat zu Tische mich geladen" (Live) 00:55
37. No. 26, "Ich liess mir sagen und mir ward erzählt" (Live) 01:48
38. No. 11, "Wie lange schon war immer mein Verlangen" (Live) 02:42
39. No. 37, "Wie viele Zeit verlor ich, dich zu lieben!" (Live) 01:35
40. No. 32, "Was soll der Zorn, mein Schatz" (Live) 01:41
41. No. 5, "Selig ihr Blinden" (Live) 01:39
42. No. 12, "Nein, junger Herr" (Live) 00:46
43. No. 13, "Hoffärtig seid Ihr, schönes Kind" (Live) 43
44. No. 28, "Du sagst mir, dass ich keine Fürstin sei" (Live) 01:19
45. No. 30, "Lass sie nur gehn" (Live) 01:33
46. No. 46, "Ich hab in Penna einen Liebsten wohnen" (Live) 01:03

Personnel:
Diana Damrau, soprano
Jonas Kaufmann, tenor
Helmut Deutsch, piano

foobar2000 1.3.7 / Dynamic Range Meter 1.1.1
log date: 2019-01-11 21:02:40

––––––––––––––––––––––––––––––––––––––––
Analyzed: Diana Damrau / Wolf: Italienisches Liederbuch (Live) (1-23)
Jonas Kaufmann / Wolf: Italienisches Liederbuch (Live) (24-46)
––––––––––––––––––––––––––––––––––––––––

DR Peak RMS Duration Track
––––––––––––––––––––––––––––––––––––––––
DR13 -3.24 dB -27.07 dB 2:10 01-No. 1, 'Auch kleine Dinge konnen uns entzucken' (Live)
DR11 -9.27 dB -25.92 dB 1:18 03-No. 39, 'Gesegnet sei das Grun' (Live)
DR12 -2.58 dB -20.83 dB 1:02 05-No. 21, 'Man sagt mir, deine Mutter woll es nicht' (Live)
DR14 -6.78 dB -25.63 dB 1:30 07-No. 40, 'O war dein Haus durchsichtig wie ein Glas' (Live)
DR13 -7.81 dB -28.24 dB 1:53 09-No. 18, 'Heb' auf dein blondes Haupt' (Live)
DR14 -5.66 dB -24.94 dB 1:28 10-No. 20, 'Mein Liebster singt am Haus' (Live)
DR12 -4.80 dB -21.13 dB 0:59 13-No. 43, 'Schweig einmal still' (Live)
DR14 -4.14 dB -23.22 dB 1:07 15-No. 6, 'Wer rief dich denn?' (Live)
DR11 -4.89 dB -24.02 dB 1:15 17-No. 10, 'Du denkst mit einem Fadchen mich zu fangen' (Live)
DR11 -0.50 dB -17.29 dB 1:18 19-No. 45, 'Verschling' der Abgrund meines Liebsten Hutte' (Live)
DR13 -1.35 dB -24.85 dB 1:45 21-No. 29, 'Wohl kenn' ich Euren Stand' (Live)
DR12 -0.50 dB -20.11 dB 1:32 23-No. 36, 'Wenn du, mein Liebster, steigst zum Himmel auf' (Live)
DR12 -5.11 dB -25.84 dB 2:00 25-No. 19, 'Wir haben Beide lange Zeit geschwiegen' (Live)
DR12 -7.40 dB -25.59 dB 1:12 27-No. 16, 'Ihr jungen Leute' (Live)
DR13 -3.82 dB -23.25 dB 1:44 29-No. 2, 'Mir ward gesagt' (Live)
DR13 -5.06 dB -24.12 dB 1:44 32-No. 15, 'Mein Liebster ist so klein' (Live)
DR13 -2.87 dB -24.42 dB 1:48 34-No. 24, 'Ich esse nun mein Brot nicht trocken mehr' (Live)
DR14 -1.66 dB -21.28 dB 0:55 36-No. 25, 'Mein Liebster hat zu Tische mich geladen' (Live)
DR12 -10.79 dB -29.89 dB 2:42 38-No. 11, 'Wie lange schon war immer mein Verlangen' (Live)
DR12 -0.50 dB -19.93 dB 1:41 40-No. 32, 'Was soll der Zorn, mein Schatz' (Live)
DR13 -5.23 dB -22.92 dB 0:47 42-No. 12, 'Nein, junger Herr' (Live)
DR13 -5.28 dB -24.33 dB 1:20 44-No. 28, 'Du sagst mir, dass ich keine Furstin sei' (Live)
DR11 -0.50 dB -16.60 dB 1:04 46-No. 46, 'Ich hab in Penna einen Liebsten wohnen' (Live)
DR13 -6.66 dB -27.98 dB 1:24 02-No. 4, 'Gesegnet sei, durch den die Welt entsund' (Live)
DR12 -5.37 dB -24.19 dB 1:38 04-No. 3, 'Ihr seid die Allerschonste' (Live)
DR11 -8.12 dB -28.25 dB 1:40 06-No. 41, 'Heut Nacht erhob ich mich um Mitternacht' (Live)
DR14 -9.65 dB -30.44 dB 1:43 08-No. 27, 'Schon streckt' ich aus im Bett die muden Glieder' (Live)
DR11 -5.91 dB -23.93 dB 1:20 11-No. 22, 'Ein Standchen Euch zu bringen' (Live)
DR13 -6.63 dB -28.01 dB 1:09 12-No. 42, 'Nicht langer kann ich singen' (Live)
DR13 -4.68 dB -23.41 dB 1:32 14-No. 44, 'O wusstest du, wie viel ich deinetwegen' (Live)
DR12 -4.22 dB -21.68 dB 1:35 16-No. 31, 'Wie soll ich frohlich sein' (Live)
DR13 -6.38 dB -26.64 dB 2:36 18-No. 14, 'Geselle, woll'n wir uns in Kutten hullen' (Live)
DR14 -8.79 dB -29.24 dB 1:58 20-No. 8, 'Nun lass uns Frieden schliessen' (Live)
DR11 -2.56 dB -23.12 dB 1:41 22-No. 38, 'Wenn du mich mit den Augen streifst' (Live)
DR13 -11.15 dB -30.66 dB 1:50 24-No. 23, 'Was fur ein Lied soll dir gesungen werden' (Live)
DR15 -6.96 dB -27.68 dB 3:01 26-No. 34, 'Und steht Ihr fruh am Morgen auf' (Live)
DR12 -2.08 dB -23.04 dB 1:53 28-No. 9, 'Dass doch gemalt all deine Reize waren' (Live)
DR14 -4.95 dB -30.39 dB 2:12 30-No. 17, 'Und willst du deinen Liebsten sterben sehen' (Live)
DR13 -19.65 dB -37.27 dB 2:45 31-No. 33, 'Sterb' ich, so hullt in Blumen meine Glieder' (Live)
DR14 -5.59 dB -27.51 dB 3:23 33-No. 35, 'Benedeit die sel'ge Mutter' (Live)
DR13 -11.67 dB -30.87 dB 1:45 35-No. 7, 'Der Mond hat eine schwere Klag' erhoben' (Live)
DR13 -1.32 dB -22.24 dB 1:48 37-No. 26, 'Ich liess mir sagen und mir ward erzahlt' (Live)
DR12 -9.30 dB -26.67 dB 1:35 39-No. 37, 'Wie viele Zeit verlor ich, dich zu lieben!' (Live)
DR12 -6.14 dB -24.72 dB 1:39 41-No. 5, 'Selig ihr Blinden' (Live)
DR13 -1.00 dB -19.52 dB 0:44 43-No. 13, 'Hoffartig seid Ihr, schones Kind' (Live)
DR12 -3.78 dB -21.33 dB 1:33 45-No. 30, 'Lass sie nur gehn' (Live)
––––––––––––––––––––––––––––––––––––––––

Number of tracks: 46
Official DR value: DR13

Samplerate: 96000 Hz
Channels: 2
Bits per sample: 24
Bitrate: 2316 kbps
Codec: FLAC
================================================================================


Thanks to the Original customer.