Tags
Language
Tags

Dolly Parton - Bubbling Over (1973/2019) [Official Digital Download 24/96]

Posted By: pyatak
Dolly Parton - Bubbling Over (1973/2019) [Official Digital Download 24/96]

Dolly Parton - Bubbling Over (1973/2019) [Official Digital Download 24/96]
FLAC (tracks) 24-bit/96 kHz | Front Cover | Time - 24:50 minutes | 514 MB
Country | Label: RCA/Legacy, Official Digital Download

Dolly Parton's 1973 album "Bubbling Over" is probably one of her better in-studio solo records from her early years with RCA Records, yet very few know much about it. Going only as far as #14 on the Country Billboard Charts, this set did have one hit single, Dolly's remake of "Travellin' Man", a song she originally recorded for her 1971 masterpiece "Coat Of Many Colors". That single went to #20 on the single's chart.

Other greats in this collection are the title-song (in which Dolly performed as her first number on her ill-fated ABC variety series in 1987), "The Beginning" (a song she would rerecord with Porter Wagoner on 1975's "Say Forever You'll Be Mine"), "Afraid To Live and Afraid Of Dying", and "My Kind of Man".

Les Leverett, who shot the majority of Dolly RCA records, actually won an award for his album shot of this LP. The photograph of Dolly was taken at the Country Music Hall of Fame in Nashville.

TRACKLIST

1 Bubbling Over
2 Traveling Man
3 Alabama Sundown
4 Afraid to Live and Afraid of Dying
5 Love with Me
6 My Kind of Man
7 Sometimes an Old Memory Gets in My Eye
8 Pleasant as May
9 The Beginning
10 Love, You're So Beautiful Tonight

foobar2000 1.3.16 / Dynamic Range Meter 1.1.1
log date: 2019-05-17 19:04:26

––––––––––––––––––––––––––––––––––––––––
Analyzed: Dolly Parton / Bubbling Over
––––––––––––––––––––––––––––––––––––––––

DR Peak RMS Duration Track
––––––––––––––––––––––––––––––––––––––––
DR8 -1.64 dB -12.34 dB 2:23 01-Bubbling Over
DR11 0.00 dB -12.73 dB 2:15 02-Traveling Man
DR11 -0.03 dB -13.16 dB 2:36 03-Alabama Sundown
DR11 -1.12 dB -13.98 dB 2:07 04-Afraid to Live and Afraid of Dying
DR11 -0.09 dB -15.09 dB 2:19 05-Love with Me
DR11 -0.50 dB -14.01 dB 2:27 06-My Kind of Man
DR11 -0.72 dB -14.79 dB 2:22 07-Sometimes an Old Memory Gets in My Eye
DR12 -2.19 dB -17.27 dB 2:39 08-Pleasant as May
DR12 -0.49 dB -16.86 dB 2:37 09-The Beginning
DR11 -1.67 dB -15.85 dB 3:08 10-Love, You're So Beautiful Tonight
––––––––––––––––––––––––––––––––––––––––

Number of tracks: 10
Official DR value: DR11

Samplerate: 96000 Hz
Channels: 2
Bits per sample: 24
Bitrate: 2866 kbps
Codec: FLAC
================================================================================



Thanks to the Original customer.