Donald Byrd - Chant (1979/2021) [Official Digital Download 24/96]

Posted By: pyatak
Donald Byrd - Chant (1979/2021) [Official Digital Download 24/96]

Donald Byrd - Chant (1979/2021) [Official Digital Download 24/96]
FLAC (tracks) 24-bit/96 kHz | Front Cover | Time - 45:25 minutes | 896 MB
Jazz | Label: Blue Note Records, Official Digital Download

Trumpeter Donald Byrd and baritone saxophonist Pepper Adams had a formidable partnership throughout the early 1960s, making a series of highly regarded hard bop albums. Yet somehow this masterful quintet session from April 1961 (which also features Herbie Hancock, sounding exceptionally fine on his very first Blue Note recording session) remained unreleased for nearly 20 years. Of particular note are Herbie’s playing on “Great God” and the sophisticated excellence the entire ensemble brings to Duke Pearson’s masterpiece composition “Chant.”

Blue Note proudly releases this title as part of their Blue Note Tone Poet series! The Blue Note Tone Poet Series was born out of Blue Note President Don Was’ admiration for the exceptional audiophile Blue Note LP reissues presented by Music Matters. Was brought Joe Harley (from Music Matters), a.k.a. the “Tone Poet,” on board to curate and supervise a series of reissues from the Blue Note family of labels.

Extreme attention to detail has been paid to getting these right in every conceivable way: Every aspect of these Blue Note/Tone Poet releases is done to the highest possible standard. It means that you will never find a superior version. This is IT.

The series is produced by Joe Harley and features an all-analog, mastered-from-the-original-master-tape process with high-resolution digital transfer, mastered by Kevin Gray (Cohearant Audio).

TRACKLIST

1. Donald Byrd - I'm An Old Cowhand
2. Donald Byrd - You're Next
3. Donald Byrd - Chant
4. Donald Byrd - That's All
5. Donald Byrd - Great God
6. Donald Byrd - Sophisticated Lady

foobar2000 1.6.2 / Dynamic Range Meter 1.1.1
log date: 2021-06-11 11:10:08

––––––––––––––––––––––––––––––––––––––––
Analyzed: Donald Byrd / Chant
––––––––––––––––––––––––––––––––––––––––

DR Peak RMS Duration Track
––––––––––––––––––––––––––––––––––––––––
DR13 -2.45 dB -19.69 dB 7:42 01-I'm An Old Cowhand
DR15 -0.74 dB -20.79 dB 7:24 02-You're Next
DR14 -1.40 dB -20.82 dB 9:03 03-Chant
DR12 -1.45 dB -17.75 dB 9:40 04-That's All
DR13 -0.24 dB -18.22 dB 7:01 05-Great God
DR15 -3.55 dB -20.81 dB 4:34 06-Sophisticated Lady
––––––––––––––––––––––––––––––––––––––––

Number of tracks: 6
Official DR value: DR14

Samplerate: 96000 Hz
Channels: 2
Bits per sample: 24
Bitrate: 2632 kbps
Codec: FLAC
================================================================================



Thanks to the Original customer.