Tags
Language
Tags

Donald Byrd - Fuego (1959/2021) [Official Digital Download 24/96]

Posted By: pyatak
Donald Byrd - Fuego (1959/2021) [Official Digital Download 24/96]

Donald Byrd - Fuego (1959/2021) [Official Digital Download 24/96]
FLAC (tracks) 24-bit/96 kHz | Front Cover | Time - 41:10 minutes | 803 MB
Jazz | Label: Ancien Prodige, Official Digital Download

Fuego is an album by American trumpeter Donald Byrd recorded in 1959 and released on the Blue Note label in 1960 as BLP 4026, featuring Byrd with Jackie McLean, Duke Pearson, Doug Watkins and Lex Humphries.

The Allmusic review by Michael G. Nastos awarded the album 4 stars and stated "hard bop is at the core of this band, but Byrd is moving further into post-bop… as he takes a break from forceful interaction to play a more democratic role on this refined and mature album that is less brash, a prelude for his more powerful statements yet to come". The Penguin Guide to Jazz praised McLean's contributions but criticized the uninteresting compositions.

TRACKLIST

1. Donald Byrd - Fuego
2. Donald Byrd - Bup a Loup
3. Donald Byrd - Funky Mama
4. Donald Byrd - Low Life
5. Donald Byrd - Lament
6. Donald Byrd - Amen

foobar2000 1.6.2 / Dynamic Range Meter 1.1.1
log date: 2021-12-04 16:59:01

––––––––––––––––––––––––––––––––––––––––
Analyzed: Donald Byrd / Fuego
––––––––––––––––––––––––––––––––––––––––

DR Peak RMS Duration Track
––––––––––––––––––––––––––––––––––––––––
DR13 -0.05 dB -17.72 dB 6:40 01-Fuego
DR13 -1.66 dB -17.76 dB 4:06 02-Bup a Loup
DR14 -0.90 dB -18.93 dB 11:02 03-Funky Mama
DR14 -1.80 dB -19.16 dB 6:03 04-Low Life
DR13 0.00 dB -18.77 dB 8:28 05-Lament
DR13 -2.28 dB -17.80 dB 4:51 06-Amen
––––––––––––––––––––––––––––––––––––––––

Number of tracks: 6
Official DR value: DR13

Samplerate: 96000 Hz
Channels: 2
Bits per sample: 24
Bitrate: 2651 kbps
Codec: FLAC
================================================================================



Thanks to the Original customer.