Tags
Language
Tags

Donna Summer - A Hot Summer Night (Live at Pacific Amphitheatre 06.08.1983) (1983/2020) [Official Digital Download]

Posted By:
Donna Summer - A Hot Summer Night (Live at Pacific Amphitheatre 06.08.1983) (1983/2020) [Official Digital Download]

Donna Summer - A Hot Summer Night (Live at Pacific Amphitheatre, Costa Mesa, California, 6th August 1983) (2020) [Official Digital Download]
FLAC (tracks) 24-bit/44.1 kHz | Front Cover | Time - 01:12:46 minutes | 815 MB
Pop | Label: Driven by The Music, Official Digital Download

A Hot Summer Night was filmed and recorded live on 6th August 1983, at the Pacific Amphitheatre in Costa Mesa, CA, with an audience of 18,000 fans, during the second-leg of Donna Summer’s 1983 Hard For The Money tour, which supported the recently released She Works Hard For The Money album.

Restored from the analogue video tapes, this is the concert’s debut album release and therefore the makes it a perfect sequel to 1978’s Live And More. The set-list includes MacArthur Park, Love Is In Control…, Bad Girls Medley, On The Radio and Last Dance, as well as performances with special guests Musical Youth, her sisters Dara and Mary Ellen on an extended showpiece version of Woman, as well as closing the show with her eldest daughter Mimi, performing State Of Independence.

TRACKLIST

1. Donna Summer - Intro (Live at Pacific Amphitheatre, Costa Mesa, California, 6th August 1983)
2. Donna Summer - Macarthur Park (Live at Pacific Amphitheatre, Costa Mesa, California, 6th August 1983)
3. Donna Summer - Love Is in Control (Finger on the Trigger) (Live at Pacific Amphitheatre, Costa Mesa, California, 6th August 1983)
4. Donna Summer - Unconditional Love (Live at Pacific Amphitheatre, Costa Mesa, California, 6th August 1983)
5. Donna Summer - Romeo (Live at Pacific Amphitheatre, Costa Mesa, California, 6th August 1983)
6. Donna Summer - Don't Cry for Me Argentina (Live at Pacific Amphitheatre, Costa Mesa, California, 6th August 1983)
7. Donna Summer - On the Radio (Live at Pacific Amphitheatre, Costa Mesa, California, 6th August 1983)
8. Donna Summer - Forgive Me (Live at Pacific Amphitheatre, Costa Mesa, California, 6th August 1983)
9. Donna Summer - Sisters Dialogue (Live at Pacific Amphitheatre, Costa Mesa, California, 6th August 1983)
10. Donna Summer - Woman (with Band Introductions) (Live at Pacific Amphitheatre, Costa Mesa, California, 6th August 1983)
11. Donna Summer - Bad Girls' Medley: Dim All the Lights / Sunset People / Bad Girls / Hot Stuff (Live at Pacific Amphitheatre, Costa Mesa, California, 6th August 1983)
12. Donna Summer - Last Dance (Live at Pacific Amphitheatre, Costa Mesa, California, 6th August 1983)
13. Donna Summer - She Works Hard for the Money (Live at Pacific Amphitheatre, Costa Mesa, California, 6th August 1983)
14. Donna Summer - State of Independence (Live at Pacific Amphitheatre, Costa Mesa, California, 6th August 1983)

foobar2000 1.3.16 / Dynamic Range Meter 1.1.1
log date: 2020-07-09 15:11:33

––––––––––––––––––––––––––––––––––––––––
Analyzed: Donna Summer / A Hot Summer Night (Live at Pacific Amphitheatre, Costa Mesa, California, 6th August 1983) Remastered
––––––––––––––––––––––––––––––––––––––––

DR Peak RMS Duration Track
––––––––––––––––––––––––––––––––––––––––
DR6 -0.50 dB -7.40 dB 2:00 01-Intro (Live at Pacific Amphitheatre, Costa Mesa, California, 6th August 1983)
DR6 -0.47 dB -8.10 dB 4:13 02-Macarthur Park (Live at Pacific Amphitheatre, Costa Mesa, California, 6th August 1983)
DR7 -0.50 dB -8.96 dB 4:54 04-Unconditional Love (Live at Pacific Amphitheatre, Costa Mesa, California, 6th August 1983)
DR8 -0.50 dB -10.19 dB 4:52 05-Romeo (Live at Pacific Amphitheatre, Costa Mesa, California, 6th August 1983)
DR8 0.00 dB -9.43 dB 6:06 06-Don't Cry for Me Argentina (Live at Pacific Amphitheatre, Costa Mesa, California, 6th August 1983)
DR7 -0.50 dB -9.17 dB 3:39 07-On the Radio (Live at Pacific Amphitheatre, Costa Mesa, California, 6th August 1983)
DR7 -0.50 dB -9.62 dB 4:34 08-Forgive Me (Live at Pacific Amphitheatre, Costa Mesa, California, 6th August 1983)
DR7 -0.50 dB -8.87 dB 3:42 09-Sisters Dialogue (Live at Pacific Amphitheatre, Costa Mesa, California, 6th August 1983)
DR7 -0.50 dB -8.47 dB 10:33 10-Woman (with Band Introductions) (Live at Pacific Amphitheatre, Costa Mesa, California, 6th August 1983)
DR6 0.00 dB -8.44 dB 5:46 12-Last Dance (Live at Pacific Amphitheatre, Costa Mesa, California, 6th August 1983)
DR7 -0.46 dB -8.06 dB 4:55 13-She Works Hard for the Money (Live at Pacific Amphitheatre, Costa Mesa, California, 6th August 1983)
DR6 -0.50 dB -7.90 dB 8:04 14-State of Independence (Live at Pacific Amphitheatre, Costa Mesa, California, 6th August 1983)
––––––––––––––––––––––––––––––––––––––––

Number of tracks: 12
Official DR value: DR7

Samplerate: 44100 Hz
Channels: 2
Bits per sample: 24
Bitrate: 1611 kbps
Codec: FLAC
================================================================================



Thanks to the Original customer.