Tags
Language
Tags

Donna Summer - The Wanderer (40th Anniversary) (2020) [Official Digital Download]

Posted By:
Donna Summer - The Wanderer (40th Anniversary) (2020) [Official Digital Download]

Donna Summer - The Wanderer (40th Anniversary) (2020) [Official Digital Download]
FLAC (tracks) 24-bit/44.1 kHz | Front Cover | Time - 01:11:09 minutes | 833 MB
Pop, Disco | Label: Driven By The Music, Official Digital Download

For this 40th Anniversary edition, The Wanderer has been re-evaluated and now fuses-together 1980 with 2020, showcasing the strength of the album's songs, with brand new remixes by the Italian production team behind Change and Artist/Producer/Remixer Le Flex. After years of silence, in 2018 Mauro Malavasi and Davide Romani resurrected Change with an album that retained their classic sound but with a contemporary twist, produced and mixed with the inhouse production team, Figo Sound, who were invited to remix two of Donna's tracks. Figo Sound has created two contemporary radio-friendly tracks, with 'The Wanderer', retaining it's shuffling beat and 'Looking Up', which firmly plants Donna Summer back on the Dancefloor!

TRACKLIST

1. Donna Summer - The Wanderer (Figo Sound Radio Mix)
2. Donna Summer - Looking Up (Figo Sound Version)
3. Donna Summer - Nightlife (Le Flex Sunset Remix) (Radio Edit)
4. Donna Summer - The Wanderer
5. Donna Summer - Looking Up
6. Donna Summer - Breakdown
7. Donna Summer - Grand Illusion
8. Donna Summer - Running for Cover
9. Donna Summer - Cold Love
10. Donna Summer - Who Do You Think You're Foolin
11. Donna Summer - Nightlife
12. Donna Summer - Stop Me
13. Donna Summer - I Believe in Jesus
14. Donna Summer - Grand Illusion (Le Flex Poolside Mix)
15. Donna Summer - Looking Up (Figo Sound Extended Version)
16. Donna Summer - Nightlife (Le Flex Sunset Remix)
17. Donna Summer - The Wanderer (Figo Sound Full Mix)

foobar2000 1.3.16 / Dynamic Range Meter 1.1.1
log date: 2020-10-16 02:30:37

––––––––––––––––––––––––––––––––––––––––
Analyzed: Donna Summer / The Wanderer (40th Anniversary)
––––––––––––––––––––––––––––––––––––––––

DR Peak RMS Duration Track
––––––––––––––––––––––––––––––––––––––––
DR6 -0.68 dB -7.84 dB 3:12 01-The Wanderer (Figo Sound Radio Mix)
DR8 -0.96 dB -9.86 dB 4:21 02-Looking Up (Figo Sound Version)
DR7 -0.50 dB -8.45 dB 3:51 03-Nightlife (Le Flex Sunset Remix) (Radio Edit)
DR6 -0.50 dB -8.97 dB 3:47 04-The Wanderer
DR6 -0.50 dB -8.32 dB 3:59 05-Looking Up
DR6 -0.50 dB -8.57 dB 4:09 06-Breakdown
DR6 -0.50 dB -8.57 dB 3:56 07-Grand Illusion
DR6 -0.50 dB -8.84 dB 4:01 08-Running for Cover
DR7 -0.50 dB -9.23 dB 3:40 09-Cold Love
DR6 -0.50 dB -8.98 dB 4:19 10-Who Do You Think You're Foolin
DR8 -0.50 dB -10.23 dB 4:00 11-Nightlife
DR8 -0.50 dB -10.00 dB 3:45 12-Stop Me
DR7 -0.50 dB -10.54 dB 3:40 13-I Believe in Jesus
DR8 -0.50 dB -10.13 dB 4:03 14-Grand Illusion (Le Flex Poolside Mix)
DR7 -0.50 dB -9.06 dB 6:45 15-Looking Up (Figo Sound Extended Version)
DR7 -0.50 dB -9.01 dB 5:42 16-Nightlife (Le Flex Sunset Remix)
DR6 -0.68 dB -7.72 dB 3:59 17-The Wanderer (Figo Sound Full Mix)
––––––––––––––––––––––––––––––––––––––––

Number of tracks: 17
Official DR value: DR7

Samplerate: 44100 Hz
Channels: 2
Bits per sample: 24
Bitrate: 1707 kbps
Codec: FLAC
================================================================================



Thanks to the Original customer.