Donny Hathaway - In Performance (1971/2012) [Official Digital Download 24/192]

Posted By: pyatak
Donny Hathaway - In Performance (1971/2012) [Official Digital Download 24/192]

Donny Hathaway - In Performance (1971/2012) [Official Digital Download[ 24/192]
FLAC (tracks) 24-bit/192 kHz | Front Cover | Time - 40;47 minutes | 1,25 GB
Soul | Label: Rhino Atlantic, Official Digital Download

Out of print in the U.S.! 1971 live album from the Soul vocalist, songwriter and producer. Donny Hathaway was one of the brightest new voices in Soul music at the dawn of the '70s, possessed of a smooth, Gospel-inflected romantic croon that was also at home on fiery protest material. He influenced a whole generation of later Soul acts despite releasing only four LPs, but achieved his greatest commercial success with two huge hits as Roberta Flack's duet partner of choice. In Performance features six tracks, including covers of Nina Simone's 'To Be Young, Gifted And Black', Leon Russell's 'A Song For You' and Al Kooper's 'I Love You More Than You'll Ever Know'. Warner.

TRACKLIST

1. Donny Hathaway - To Be Young, Gifted and Black (Live at the Troubador, Los Angeles, CA)
2. Donny Hathaway - A Song for You (Live at the Troubador, Los Angeles, CA)
3. Donny Hathaway - Nu-Po (Live at Carnegie Hall, New York)
4. Donny Hathaway - I Love You More Than You'll Ever Know (Live at the Bitter End, New York City, 1971)
5. Donny Hathaway - We Need You Right Now (Live at the Troubador, Los Angeles, CA)
6. Donny Hathaway - Sack Full of Dreams (Live at the Troubador, Los Angeles, CA)

foobar2000 1.6.2 / Dynamic Range Meter 1.1.1
log date: 2021-06-06 14:16:53

––––––––––––––––––––––––––––––––––––––––
Analyzed: Donny Hathaway / In Performance
––––––––––––––––––––––––––––––––––––––––

DR Peak RMS Duration Track
––––––––––––––––––––––––––––––––––––––––
DR11 -0.97 dB -16.14 dB 8:22 01-To Be Young, Gifted and Black (Live at the Troubador, Los Angeles, CA)
DR11 -2.99 dB -19.72 dB 5:54 02-A Song for You (Live at the Troubador, Los Angeles, CA)
DR12 0.00 dB -14.44 dB 7:09 03-Nu-Po (Live at Carnegie Hall, New York)
DR12 -1.21 dB -17.59 dB 5:58 04-I Love You More Than You'll Ever Know (Live at the Bitter End, New York City, 1971)
DR12 -0.27 dB -16.38 dB 7:56 05-We Need You Right Now (Live at the Troubador, Los Angeles, CA)
DR13 -1.11 dB -19.83 dB 5:31 06-Sack Full of Dreams (Live at the Troubador, Los Angeles, CA)
––––––––––––––––––––––––––––––––––––––––

Number of tracks: 6
Official DR value: DR12

Samplerate: 192000 Hz
Channels: 2
Bits per sample: 24
Bitrate: 4211 kbps
Codec: FLAC
================================================================================



Thanks to the Original customer.