Eddie Davis - The Eddie Lockjaw Davis Cookbook (2019) [Official Digital Download]

Posted By: pyatak
Eddie Davis - The Eddie Lockjaw Davis Cookbook (2019) [Official Digital Download]

Eddie Davis - The Eddie Lockjaw Davis Cookbook (2019) [Official Digital Download]
FLAC (tracks) 24-bit/44.1 kHz | Front Cover | Time - 38:46 minutes | 416 MB
Jazz | Label: RevOla, Official Digital Download

This is the classic jazz album by legendary saxophonist Eddie Lockjaw Davis that he famously recorded in 1958 for the Prestige label featuring organist Shirley Scott and flautist Jerome Richardson. The album was so successful two later cookbooks were also recorded by Davis. Newly reissued on vinyl, volume one is a MUST HAVE addition to all jazz collections.

TRACKLIST

1 I'm Just a Lucky So and So (Remastered)
2 Heat 'N' Serve (Remastered)
3 My Old Flame (Remastered)
4 The Goose Hangs High (Remastered)
5 Simmerin' (Remastered)
6 Strike Up the Band (Remastered)

foobar2000 1.3.16 / Dynamic Range Meter 1.1.1
log date: 2019-03-25 19:40:54

––––––––––––––––––––––––––––––––––––––––
Analyzed: Eddie Davis / The Eddie Lockjaw Davis Cookbook
––––––––––––––––––––––––––––––––––––––––

DR Peak RMS Duration Track
––––––––––––––––––––––––––––––––––––––––
DR15 -2.95 dB -21.70 dB 6:16 01-I'm Just a Lucky So and So
DR14 -2.32 dB -19.25 dB 7:24 02-Heat 'N' Serve
DR14 -2.10 dB -21.93 dB 6:05 03-My Old Flame
DR13 -2.09 dB -19.64 dB 5:55 04-The Goose Hangs High
DR14 -2.02 dB -21.26 dB 9:29 05-Simmerin'
DR13 -3.06 dB -19.93 dB 3:38 06-Strike Up the Band
––––––––––––––––––––––––––––––––––––––––

Number of tracks: 6
Official DR value: DR14

Samplerate: 44100 Hz
Channels: 2
Bits per sample: 24
Bitrate: 1575 kbps
Codec: FLAC
================================================================================



Thanks to the Original customer.