Eddie Higgins Trio - Again (2000) [SACD ISO+HiRes FLAC]

Posted By: tiburon
Eddie Higgins Trio - Again (2000) [SACD ISO+HiRes FLAC]

Eddie Higgins Trio - Again (2000) [SACD ISO+HiRes FLAC]
Pio BDP-80FD Rip | SACD ISO | DST64 2.0 >1-bit/2.8224 MHz | Front+Back | 2.67GB + 5% Recovery
FLAC tracks 2.0 24bit/88.2 kHz | Front+Back | 1.3GB + 5% Recovery

One of a handful of the very best piano jazz interpreters in the world, Eddie Higgins takes his place along side Beegie Adair, Dick Hyman, Oscar Peterson, John Proulx, Hank Jones, and maybe five or six other masters. This CD, like all his albums is stunning in its simplicity and in its complexity. A master of interpretation, melodic invention and smooth, easy jazz at his peak.
Track List
01. Again (Newman) - 3:21
02. How Insensitive (Jobim) - 5:02
03. Gion Kouta (Kyoto Blues) (Sassa-Higgins) - 7:54
04. My Foolish Heart (Young) - 6:35
05. Yellow Days (Carrillo) - 4:08
06. My Romance (Rodgers) - 6:04
07. I'll Never Be the Same (Mlaneck-Signorelli) - 3:58
08. Walk Alone (Ozone) - 6:51
09. Now Please Don't You Cry, Beautiful Edith (Kirk) - 2:50
10. Polka Dots and Moonbeams (Van Heusen) - 7:58
11. Will You Still Be Mine (Dennis) - 6:37
12. Hurry Song (Higgins) - 5:06

musicians
Eddie Higgins - piano
Ray Drummond - bass
Ben Riley - drums

Produced by Tetsuo Hara


––––––––––––––––––––––––––––––––––––––––
Analyzed: Eddie Higgins Trio / AGAIN
––––––––––––––––––––––––––––––––––––––––

DR Peak RMS Duration Track
––––––––––––––––––––––––––––––––––––––––
DR8 -5.18 dB -15.46 dB 3:21 01-Again
DR8 -5.25 dB -16.18 dB 5:02 02-How Insensitive
DR7 -4.70 dB -14.59 dB 7:54 03-Gion Kouta ~ Kyoto Blues
DR7 -5.13 dB -13.91 dB 6:35 04-My Foolish Heart
DR7 -5.25 dB -15.15 dB 4:08 05-Yellow Days
DR7 -4.81 dB -13.77 dB 6:04 06-My Romance
DR7 -5.12 dB -13.90 dB 3:58 07-I'll Never Be The Same
DR7 -4.92 dB -13.56 dB 6:51 08-Walk Alone
DR8 -5.23 dB -15.51 dB 2:50 09-Now Please Don't You Cry , Beautiful Edith
DR8 -5.18 dB -16.30 dB 7:58 10-Polka Dots And Moonbeams
DR7 -4.80 dB -14.21 dB 6:37 11-Will You Still Be Mine?
DR6 -4.99 dB -12.99 dB 5:06 12-Hurry Song
––––––––––––––––––––––––––––––––––––––––

Number of tracks: 12
Official DR value: DR7

Samplerate: 2822400 Hz / PCM Samplerate: 88200 Hz
Channels: 2
Bits per sample: 1
Bitrate: 5645 kbps
Codec: DSD64
================================================================================


––––––––––––––––––––––––––––––––––––––––
Analyzed: Eddie Higgins Trio / AGAIN
––––––––––––––––––––––––––––––––––––––––

DR Peak RMS Duration Track
––––––––––––––––––––––––––––––––––––––––
DR8 -0.58 dB -10.86 dB 3:21 01-Again
DR8 -0.65 dB -11.58 dB 5:02 02-How Insensitive
DR7 -0.10 dB -9.99 dB 7:54 03-Gion Kouta ~ Kyoto Blues
DR7 -0.53 dB -9.31 dB 6:35 04-My Foolish Heart
DR7 -0.65 dB -10.55 dB 4:08 05-Yellow Days
DR7 -0.21 dB -9.17 dB 6:04 06-My Romance
DR7 -0.52 dB -9.30 dB 3:58 07-I'll Never Be The Same
DR7 -0.32 dB -8.96 dB 6:51 08-Walk Alone
DR8 -0.63 dB -10.91 dB 2:50 09-Now Please Don't You Cry , Beautiful Edith
DR8 -0.58 dB -11.70 dB 7:58 10-Polka Dots And Moonbeams
DR7 -0.20 dB -9.61 dB 6:37 11-Will You Still Be Mine?
DR6 -0.39 dB -8.39 dB 5:06 12-Hurry Song
––––––––––––––––––––––––––––––––––––––––

Number of tracks: 12
Official DR value: DR7

Samplerate: 88200 Hz
Channels: 2
Bits per sample: 24
Bitrate: 2930 kbps
Codec: FLAC
================================================================================


Gain for FLAC tracks = 4.6dB

Thanks to the original ripper