Tags
Language
Tags

Ella Fitzgerald - Ella Fitzgerald & Mr Gordon Jenkins Invite You To Listen And Relax (1955/2021) [Off. Digital Download 24/96]

Posted By: pyatak
Ella Fitzgerald - Ella Fitzgerald & Mr Gordon Jenkins Invite You To Listen And Relax (1955/2021) [Off. Digital Download 24/96]

Ella Fitzgerald - Ella Fitzgerald & Mr Gordon Jenkins Invite You To Listen And Relax (1955/2021) [Off. Digital Download 24/96]
FLAC (tracks) 24-bit/96 kHz | Front Cover | Time - 35:09 minutes | 545 MB
Vocal Jazz | Label: Decca/RevOla, Official Digital Download

Miss Ella Fitzgerald & Mr Gordon Jenkins Invite You to Listen and Relax is a collection of material recorded by Ella Fitzgerald between 1949 and 1954, all tracks were arranged by Gordon Jenkins. All tracks were previously only available on 78rpm singles. The album was compiled and released by Decca in 1955.

TRACKLIST

1. Ella Fitzgerald - I Wished On The Moon (Remastered)
2. Ella Fitzgerald - Baby (Remastered)
3. Ella Fitzgerald - I Hadn't Anyone Till You (Remastered)
4. Ella Fitzgerald - A Man Wrote A Song (Remastered)
5. Ella Fitzgerald - Who's Afraid (Not I, Not I, Not I) (Remastered)
6. Ella Fitzgerald - Happy Talk (Remastered)
7. Ella Fitzgerald - Black Coffee (Remastered)
8. Ella Fitzgerald - Lover's Gold (Remastered)
9. Ella Fitzgerald - I'm Gonna Wash That Man Right Outa My Hair (Remastered)
10. Ella Fitzgerald - Dream A Little Longer (Remastered)
11. Ella Fitzgerald - I Need (Remastered)
12. Ella Fitzgerald - Foolish Tears (Remastered)

foobar2000 1.6.2 / Dynamic Range Meter 1.1.1
log date: 2021-08-13 00:41:09

––––––––––––––––––––––––––––––––––––––––
Analyzed: Ella Fitzgerald / Ella Fitzgerald & Mr Gordon Jenkins Invite You To Listen And Relax
––––––––––––––––––––––––––––––––––––––––

DR Peak RMS Duration Track
––––––––––––––––––––––––––––––––––––––––
DR10 0.00 dB -13.49 dB 3:08 01-I Wished On The Moon (Remastered)
DR10 -0.15 dB -12.91 dB 2:43 02-Baby (Remastered)
DR11 -1.74 dB -15.23 dB 3:01 03-I Hadn't Anyone Till You (Remastered)
DR11 -1.88 dB -15.53 dB 3:13 04-A Man Wrote A Song (Remastered)
DR10 -1.37 dB -14.06 dB 2:49 05-Who's Afraid (Not I, Not I, Not I) (Remastered)
DR11 -0.26 dB -13.24 dB 2:27 06-Happy Talk (Remastered)
DR11 -0.10 dB -12.96 dB 3:05 07-Black Coffee (Remastered)
DR12 -0.14 dB -14.31 dB 3:06 08-Lover's Gold (Remastered)
DR11 0.00 dB -12.47 dB 2:55 09-I'm Gonna Wash That Man Right Outa My Hair (Remastered)
DR11 -1.95 dB -14.66 dB 3:01 10-Dream A Little Longer (Remastered)
DR10 -0.17 dB -13.28 dB 2:40 11-I Need (Remastered)
DR10 -2.15 dB -14.57 dB 3:00 12-Foolish Tears (Remastered)
––––––––––––––––––––––––––––––––––––––––

Number of tracks: 12
Official DR value: DR10

Samplerate: 96000 Hz
Channels: 2
Bits per sample: 24
Bitrate: 2081 kbps
Codec: FLAC
================================================================================



Thanks to the Original customer.