Tags
Language
Tags

Ella Fitzgerald - Ella Fitzgerald Sings The Cole Porter Song Book (1956/2014) [Official Digital Download 24/192]

Posted By:
Ella Fitzgerald - Ella Fitzgerald Sings The Cole Porter Song Book (1956/2014) [Official Digital Download 24/192]

Ella Fitzgerald - Ella Fitzgerald Sings The Cole Porter Song Book (1956/2014) [Official Digital Download 24/192]
FLAC (tracks) 24-bit/192 kHz | Front Cover | Time - 01:48:36 minutes | 2,48 GB
Vocal Jazz | Label: Verve Reissues, Official Digital Download

Ella Fitzgerald Sings the Cole Porter Song Book is a 1956 studio double album by American jazz singer Ella Fitzgerald, accompanied by a studio orchestra conducted and arranged by Buddy Bregman, focusing on the songs of Cole Porter.

This was Fitzgerald's first album for the newly created Verve Records (and the first album to be released by the label). Granz decided to have Fitzgerald record well-established popular works because

I was interested in how I could enhance Ella’s position, to make her a singer with more than just a cult following amongst jazz fans. So I proposed to Ella that the first Verve album would not be a jazz project, but rather a song book of the works of Cole Porter. I envisaged her doing a lot of composers. The trick was to change the backing enough so that, here and there, there would be signs of jazz.

Fitzgerald's time on the Verve label would see her produce her most highly acclaimed recordings, at the peak of her vocal powers. This album inaugurated Fitzgerald's Song Book series, each of the eight albums in the series focusing on a different composer of the canon known as the Great American Songbook. The album was recorded February 7–9 & March 27, 1956, in Hollywood, Los Angeles.

Fitzgerald's manager, and the producer of many of her albums, Norman Granz, visited Cole Porter at the Waldorf-Astoria and played him this entire album. Afterwards, Porter merely remarked, "My, what marvelous diction that girl has."

TRACKLIST

1. Ella Fitzgerald - All Through The Night
2. Ella Fitzgerald - Anything Goes
3. Ella Fitzgerald - Miss Otis Regrets (She's Unable To Lunch Today)
4. Ella Fitzgerald - Too Darn Hot
5. Ella Fitzgerald - In The Still Of The Night
6. Ella Fitzgerald - I Get A Kick Out Of You
7. Ella Fitzgerald - Do I Love You?
8. Ella Fitzgerald - Always True To You In My Fashion
9. Ella Fitzgerald - Let's Do It
10. Ella Fitzgerald - Just One Of Those Things
11. Ella Fitzgerald - Ev'ry Time We Say Goodbye
12. Ella Fitzgerald - All Of You
13. Ella Fitzgerald - Begin The Beguine
14. Ella Fitzgerald - Get Out Of Town
15. Ella Fitzgerald - I Am In Love
16. Ella Fitzgerald - From This Moment On
17. Ella Fitzgerald - I Love Paris
18. Ella Fitzgerald - You Do Something To Me
19. Ella Fitzgerald - Ridin' High
20. Ella Fitzgerald - Easy To Love
21. Ella Fitzgerald - It's All Right With Me
22. Ella Fitzgerald - Why Can't You Behave?
23. Ella Fitzgerald - What Is This Thing Called Love?
24. Ella Fitzgerald - You're The Top
25. Ella Fitzgerald - Love For Sale
26. Ella Fitzgerald - It's DeLovely
27. Ella Fitzgerald - Night And Day
28. Ella Fitzgerald - Ace In The Hole
29. Ella Fitzgerald - So In Love
30. Ella Fitzgerald - I've Got You Under My Skin
31. Ella Fitzgerald - I Concentrate On You
32. Ella Fitzgerald - Don't Fence Me In

foobar2000 1.6.2 / Dynamic Range Meter 1.1.1
log date: 2021-04-19 08:49:40

––––––––––––––––––––––––––––––––––––––––
Analyzed: Ella Fitzgerald / Ella Fitzgerald Sings The Cole Porter Song Book
––––––––––––––––––––––––––––––––––––––––

DR Peak RMS Duration Track
––––––––––––––––––––––––––––––––––––––––
DR12 -6.63 dB -20.35 dB 3:17 01-All Through The Night
DR13 -2.06 dB -17.78 dB 3:23 02-Anything Goes
DR12 -10.10 dB -26.28 dB 3:02 03-Miss Otis Regrets (She's Unable To Lunch Today)
DR12 -3.33 dB -18.27 dB 3:50 04-Too Darn Hot
DR12 -5.55 dB -19.69 dB 2:40 05-In The Still Of The Night
DR14 -5.63 dB -22.18 dB 4:02 06-I Get A Kick Out Of You
DR11 -7.47 dB -21.10 dB 3:51 07-Do I Love You?
DR14 -1.62 dB -18.12 dB 2:51 08-Always True To You In My Fashion
DR14 -4.64 dB -21.62 dB 3:34 09-Let's Do It
DR12 -2.13 dB -17.72 dB 3:33 10-Just One Of Those Things
DR11 -5.90 dB -19.69 dB 3:34 11-Ev'ry Time We Say Goodbye
DR12 -4.55 dB -19.79 dB 1:44 12-All Of You
DR13 -1.10 dB -17.26 dB 3:39 13-Begin The Beguine
DR12 -6.92 dB -22.91 dB 3:24 14-Get Out Of Town
DR10 -4.50 dB -17.01 dB 4:08 15-I Am In Love
DR12 -2.67 dB -17.17 dB 3:19 16-From This Moment On
DR11 -6.02 dB -19.58 dB 5:00 17-I Love Paris
DR12 -7.73 dB -22.60 dB 2:23 18-You Do Something To Me
DR13 -1.85 dB -16.74 dB 3:22 19-Ridin' High
DR11 -8.73 dB -23.57 dB 3:26 20-Easy To Love
DR12 -3.33 dB -16.96 dB 3:09 21-It's All Right With Me
DR11 -4.42 dB -19.57 dB 5:06 22-Why Can't You Behave?
DR12 -3.55 dB -17.13 dB 2:05 23-What Is This Thing Called Love?
DR12 -3.69 dB -18.24 dB 3:36 24-You're The Top
DR12 -3.57 dB -19.16 dB 5:53 25-Love For Sale
DR12 -2.82 dB -17.17 dB 2:44 26-It's DeLovely
DR12 -1.85 dB -16.57 dB 3:06 27-Night And Day
DR11 -2.69 dB -16.90 dB 1:59 28-Ace In The Hole
DR11 -4.05 dB -17.31 dB 3:52 29-So In Love
DR14 -2.31 dB -17.92 dB 2:43 30-I've Got You Under My Skin
DR11 -6.44 dB -19.24 dB 3:14 31-I Concentrate On You
DR12 -5.36 dB -19.42 dB 3:19 32-Don't Fence Me In
––––––––––––––––––––––––––––––––––––––––

Number of tracks: 32
Official DR value: DR12

Samplerate: 192000 Hz
Channels: 2
Bits per sample: 24
Bitrate: 3251 kbps
Codec: FLAC
================================================================================



Thanks to the Original customer.