Tags
Language
Tags

Ella Fitzgerald - Ella and Louis - The Anthology (2016) [Official Digital Download 24/96]

Posted By: pyatak
Ella Fitzgerald - Ella and Louis - The Anthology (2016) [Official Digital Download 24/96]

Ella Fitzgerald - Ella and Louis - The Anthology (2016) [Official Digital Download 24/96]
FLAC (tracks) 24-bit/96 kHz | Front Cover | Time - 03:09:12 minutes | 2,36 GB
Vocal Jazz | Label: BnF Collection, Official Digital Download

The voices of Ella Fitzgerald and Louis Armstrong are among the most personal and beautiful that the history of music has given us, transcending eras, genres and languages. In this wonderful release we can find the legacy of this immortal duet including all their key tracks and also some rarities that connoisseurs will surely appreciate. With remastered sound and beautiful cover art, The Complete Anthology is the definitive album of Ella & Louis, which should be on every music collection.

TRACKLIST

1. Ella Fitzgerald - Dream a Little Dream of Me
2. Ella Fitzgerald - Summertime
3. Ella Fitzgerald - Cheek to Cheek
4. Ella Fitzgerald - April in Paris
5. Ella Fitzgerald - A Foggy Day
6. Ella Fitzgerald - They Can't Take That Away from Me
7. Ella Fitzgerald - Tenderly
8. Ella Fitzgerald - Love Is Here to Stay (Remastered)
9. Ella Fitzgerald - These Foolish Things (Remastered)
10. Ella Fitzgerald - I Got Plenty o' Nuttin'
11. Ella Fitzgerald - Bess, You Is My Woman Now
12. Ella Fitzgerald - It Ain't Necessarily So
13. Ella Fitzgerald - There's a Boat That's Leavin' Soon for New York
14. Ella Fitzgerald - Oh Lawd, I'm on My Way
15. Ella Fitzgerald - Let's Call the Whole Things Off (Remastered)
16. Ella Fitzgerald - Stompin' at the Savoy (Remastered)
17. Ella Fitzgerald - I 'Ll Walk Alone
18. Ella Fitzgerald - Don't Be That Way (Remastered)
19. Ella Fitzgerald - I Won't Dance (Remastered)
20. Ella Fitzgerald - Gee Baby Ain't I Good to You (Remastered)
21. Ella Fitzgerald - I've Got My Love to Keep Me Warm (Remastered)
22. Ella Fitzgerald - Willow Weep for Me (Remastered)
23. Ella Fitzgerald - I'm Puttin' All My Eggs in One Basket (Remastered)
24. Ella Fitzgerald - A Fine Romance (Remastered)
25. Ella Fitzgerald - Ill Wind (Remastered)
26. Ella Fitzgerald - I Get Kick out of You (Remastered)
27. Ella Fitzgerald - You Won't Be Satisfied
28. Ella Fitzgerald - Learnin' the Blues (Remastered)
29. Ella Fitzgerald - Let's Do It (Remastered)
30. Ella Fitzgerald - Autumn in New-York (Remastered)
31. Ella Fitzgerald - Can Anyone Explain
32. Ella Fitzgerald - Necessary Evil
33. Ella Fitzgerald - Oops!
34. Ella Fitzgerald - Dummy Song
35. Ella Fitzgerald - The Hot Canary
36. Ella Fitzgerald - The Frim Fram Sauce
37. Ella Fitzgerald - Who Walks in When I Walk Out
38. Ella Fitzgerald - The Tender Trap
39. Ella Fitzgerald - Comes Love (Remastered)
40. Ella Fitzgerald - Makin' Whoopee (Remastered)
41. Ella Fitzgerald - They All Laughed (Remastered)
42. Ella Fitzgerald - You Won't Be Satisfied (Live)
43. Ella Fitzgerald - Undecided (Live)
44. Ella Fitzgerald - When the Saints Go Marching In (Live)

foobar2000 1.6.2 / Dynamic Range Meter 1.1.1
log date: 2021-04-05 13:44:43

––––––––––––––––––––––––––––––––––––––––
Analyzed: Ella Fitzgerald / Ella and Louis: The Anthology
––––––––––––––––––––––––––––––––––––––––

DR Peak RMS Duration Track
––––––––––––––––––––––––––––––––––––––––
DR12 -5.26 dB -20.04 dB 3:04 01-Dream a Little Dream of Me
DR12 -2.15 dB -17.68 dB 4:59 02-Summertime
DR10 -6.91 dB -19.96 dB 5:50 03-Cheek to Cheek
DR10 -6.24 dB -19.95 dB 6:21 04-April in Paris
DR11 -6.63 dB -19.93 dB 4:31 05-A Foggy Day
DR11 -5.80 dB -19.46 dB 3:09 06-They Can't Take That Away from Me
DR10 -6.99 dB -19.90 dB 5:00 07-Tenderly
DR13 0.00 dB -15.58 dB 4:03 08-Love Is Here to Stay (Remastered)
DR13 -2.19 dB -19.05 dB 7:41 09-These Foolish Things (Remastered)
DR13 -0.10 dB -15.98 dB 3:52 10-I Got Plenty o' Nuttin'
DR12 -1.43 dB -17.18 dB 5:29 11-Bess, You Is My Woman Now
DR12 -1.77 dB -17.22 dB 6:33 12-It Ain't Necessarily So
DR13 -1.54 dB -17.11 dB 4:56 13-There's a Boat That's Leavin' Soon for New York
DR13 -1.40 dB -16.20 dB 3:00 14-Oh Lawd, I'm on My Way
DR12 -1.01 dB -15.37 dB 4:14 15-Let's Call the Whole Things Off (Remastered)
DR13 -0.30 dB -15.17 dB 5:14 16-Stompin' at the Savoy (Remastered)
DR13 -6.34 dB -22.50 dB 3:11 17-I 'Ll Walk Alone
DR12 -0.30 dB -14.92 dB 4:59 18-Don't Be That Way (Remastered)
DR12 -0.30 dB -15.50 dB 4:47 19-I Won't Dance (Remastered)
DR14 -0.30 dB -16.92 dB 4:15 20-Gee Baby Ain't I Good to You (Remastered)
DR12 -1.05 dB -14.91 dB 3:14 21-I've Got My Love to Keep Me Warm (Remastered)
DR13 -1.53 dB -16.36 dB 4:21 22-Willow Weep for Me (Remastered)
DR11 -1.74 dB -15.16 dB 3:31 23-I'm Puttin' All My Eggs in One Basket (Remastered)
DR12 -1.10 dB -15.11 dB 3:55 24-A Fine Romance (Remastered)
DR13 -1.58 dB -18.10 dB 3:46 25-Ill Wind (Remastered)
DR13 0.00 dB -16.02 dB 4:21 26-I Get Kick out of You (Remastered)
DR11 -3.35 dB -17.88 dB 2:55 27-You Won't Be Satisfied
DR14 -0.97 dB -17.11 dB 7:18 28-Learnin' the Blues (Remastered)
DR13 -0.30 dB -16.80 dB 8:45 29-Let's Do It (Remastered)
DR14 -1.32 dB -19.03 dB 6:01 30-Autumn in New-York (Remastered)
DR12 -4.74 dB -19.05 dB 3:12 31-Can Anyone Explain
DR13 -6.10 dB -22.54 dB 2:35 32-Necessary Evil
DR11 -4.43 dB -20.54 dB 3:12 33-Oops!
DR11 -5.20 dB -18.83 dB 2:22 34-Dummy Song
DR11 -6.58 dB -19.49 dB 3:15 35-The Hot Canary
DR11 -4.32 dB -18.30 dB 3:13 36-The Frim Fram Sauce
DR12 -6.06 dB -20.17 dB 2:20 37-Who Walks in When I Walk Out
DR12 -6.19 dB -20.35 dB 3:00 38-The Tender Trap
DR13 -0.30 dB -14.95 dB 2:28 39-Comes Love (Remastered)
DR13 -0.30 dB -15.65 dB 3:57 40-Makin' Whoopee (Remastered)
DR13 -0.30 dB -15.75 dB 3:48 41-They All Laughed (Remastered)
DR13 -4.65 dB -20.08 dB 3:06 42-You Won't Be Satisfied (Live)
DR14 -2.57 dB -18.21 dB 3:43 43-Undecided (Live)
DR14 -3.65 dB -19.67 dB 6:07 44-When the Saints Go Marching In (Live)
––––––––––––––––––––––––––––––––––––––––

Number of tracks: 44
Official DR value: DR12

Samplerate: 96000 Hz
Channels: 2
Bits per sample: 24
Bitrate: 1313 kbps
Codec: FLAC
================================================================================



Thanks to the Original customer.