Tags
Language
Tags

Elvis Presley - Way Down in the Jungle Room (2016) [Official Digital Download 24/96]

Posted By:
Elvis Presley - Way Down in the Jungle Room (2016) [Official Digital Download 24/96]

Elvis Presley - Way Down in the Jungle Room (2016) [Official Digital Download 24/96]
FLAC (tracks) 24-bit/96 kHz | Front Cover | Time - 02:11:30 minutes | 2,75 GB
Rock-n-Roll | Label: RCA - Legacy, Official Digital Download

"Way Down in the Jungle Room" is a compilation album by American singer Elvis Presley. The album features master recordings and outtakes from two recording sessions on February 2–8, 1976 and October 28–30, 1976 in the Jungle Room, a recording studio set up by Elvis in the den of Graceland in Memphis, Tennessee. The first disc subtitled "The Masters" features material from these sessions that were later released on "From Elvis Presley Boulevard, Memphis, Tennessee" (1976), and the subsequent final studio album, "Moody Blue" (1977). The second disc, "The Outtakes", features outtakes and "in-the-studio dialog" newly mixed by Matt Ross-Spang at the Sam Phillips Recording Studio.

In 1976, Elvis Presley was in an unusual position – he was still the King of Rock & Roll and could sell out arenas all across the nation, but Top 40 radio played him only as an oldies act, and his new material popped up on the Easy Listening and Adult Contemporary charts when it charted at all. Tired of working in the studio where scheduling pressures stifled his creative spirit, Presley converted his den at his mansion Graceland into a recording studio with the help of RCA's mobile unit. Working with members of his top-notch road band, Presley recorded the sort of material he wanted to try – songs that reflected his own maturity and that of his audience – and the home-recorded sessions would become the basis for two albums, 1976's From Elvis Presley Boulevard, Memphis, Tennessee and 1977's Moody Blue. Way Down in the Jungle Room is an archival collection that collects the material recorded at Graceland in 1976, which would prove to be Presley's final recording sessions. Way Down in the Jungle Room includes the material from From Elvis Presley Boulevard, Memphis, Tennessee and Moody Blue, and a second disc of outtakes and alternate versions to create the definitive document of this often overlooked period in Presley's career.

TRACKLIST

1. Elvis Presley - Way Down
2. Elvis Presley - She Thinks I Still Care
3. Elvis Presley - Bitter They Are, Harder They Fall
4. Elvis Presley - Pledging My Love
5. Elvis Presley - For the Heart
6. Elvis Presley - Love Coming Down
7. Elvis Presley - He'll Have to Go
8. Elvis Presley - Blue Eyes Crying In the Rain
9. Elvis Presley - Hurt
10. Elvis Presley - Never Again
11. Elvis Presley - Danny Boy
12. Elvis Presley - Solitaire
13. Elvis Presley - Moody Blue
14. Elvis Presley - It's Easy for You
15. Elvis Presley - I'll Never Fall In Love Again
16. Elvis Presley - The Last Farewell
17. Elvis Presley - Bitter They Are, Harder They Fall (Take 1)
18. Elvis Presley - She Thinks I Still Care (Take 10)
19. Elvis Presley - The Last Farewell (Take 2)
20. Elvis Presley - Solitaire (Take 7)
21. Elvis Presley - I'll Never Fall In Love Again (Take 5)
22. Elvis Presley - Moody Blue (Take 1)
23. Elvis Presley - For the Heart (Take 1)
24. Elvis Presley - Hurt (Take 3)
25. Elvis Presley - Danny Boy (Take 9)
26. Elvis Presley - Never Again (Take 9)
27. Elvis Presley - Love Coming Down (Take 3)
28. Elvis Presley - Blue Eyes Crying in the Rain (Take 4)
29. Elvis Presley - She Thinks I Still Care ) ((Alternate Version) [Take 2])
30. Elvis Presley - It's Easy for You (Take 1)
31. Elvis Presley - Way Down (Take 2)
32. Elvis Presley - Pledging My Love (Take 3)
33. Elvis Presley - For the Heart (Take 4)

foobar2000 1.6.2 / Dynamic Range Meter 1.1.1
log date: 2021-06-16 10:28:44

––––––––––––––––––––––––––––––––––––––––
Analyzed: Elvis Presley / Way Down in the Jungle Room
––––––––––––––––––––––––––––––––––––––––

DR Peak RMS Duration Track
––––––––––––––––––––––––––––––––––––––––
DR13 0.00 dB -15.28 dB 2:38 01-Way Down
DR11 0.00 dB -14.41 dB 3:51 02-She Thinks I Still Care
DR10 0.00 dB -13.13 dB 3:19 03-Bitter They Are, Harder They Fall
DR13 0.00 dB -15.76 dB 2:52 04-Pledging My Love
DR9 -1.04 dB -12.89 dB 3:24 05-For the Heart
DR11 0.00 dB -13.25 dB 3:08 06-Love Coming Down
DR12 -0.43 dB -14.68 dB 4:33 07-He'll Have to Go
DR11 0.00 dB -12.99 dB 3:43 08-Blue Eyes Crying In the Rain
DR10 -0.44 dB -12.52 dB 2:09 09-Hurt
DR10 0.00 dB -12.45 dB 2:53 10-Never Again
DR11 -0.82 dB -16.88 dB 3:58 11-Danny Boy
DR12 0.00 dB -14.66 dB 4:42 12-Solitaire
DR11 0.00 dB -12.80 dB 2:51 13-Moody Blue
DR12 0.00 dB -15.19 dB 3:30 14-It's Easy for You
DR10 0.00 dB -12.29 dB 3:46 15-I'll Never Fall In Love Again
DR11 -0.08 dB -13.62 dB 4:02 16-The Last Farewell
DR12 -0.15 dB -16.18 dB 5:16 17-Bitter They Are, Harder They Fall (Take 1)
DR13 -0.17 dB -16.72 dB 6:33 18-She Thinks I Still Care (Take 10)
DR12 -0.17 dB -14.77 dB 4:16 19-The Last Farewell (Take 2)
DR14 -0.17 dB -18.49 dB 5:39 20-Solitaire (Take 7)
DR12 -0.11 dB -15.22 dB 4:05 21-I'll Never Fall In Love Again (Take 5)
DR13 -0.14 dB -15.46 dB 3:56 22-Moody Blue (Take 1)
DR12 -0.15 dB -13.71 dB 3:57 23-For the Heart (Take 1)
DR12 0.00 dB -14.72 dB 2:33 24-Hurt (Take 3)
DR14 -2.23 dB -20.42 dB 4:04 25-Danny Boy (Take 9)
DR13 -0.16 dB -16.79 dB 3:58 26-Never Again (Take 9)
DR13 -0.15 dB -16.18 dB 3:19 27-Love Coming Down (Take 3)
DR12 -0.15 dB -14.80 dB 5:01 28-Blue Eyes Crying in the Rain (Take 4)
DR13 -0.17 dB -16.39 dB 4:28 29-She Thinks I Still Care ) ((Alternate Version) [Take 2])
DR13 -1.07 dB -17.96 dB 5:26 30-It's Easy for You (Take 1)
DR12 -0.22 dB -17.02 dB 3:52 31-Way Down (Take 2)
DR13 0.00 dB -16.75 dB 5:37 32-Pledging My Love (Take 3)
DR11 -0.68 dB -13.89 dB 4:13 33-For the Heart (Take 4)
––––––––––––––––––––––––––––––––––––––––

Number of tracks: 33
Official DR value: DR12

Samplerate: 96000 Hz
Channels: 2
Bits per sample: 24
Bitrate: 3108 kbps
Codec: FLAC
================================================================================



Thanks to the Original customer.