Tags
Language
Tags

Elvis Presley - The King Of Western Bop! (The Original Louisiana Hayride Recordings) (2020) [Official Digital Download]

Posted By: pyatak
Elvis Presley - The King Of Western Bop! (The Original Louisiana Hayride Recordings) (2020) [Official Digital Download]

Elvis Presley - The King Of Western Bop! (The Original Louisiana Hayride Recordings) (2020) [Official Digital Download]
FLAC (tracks) 24-bit/96 kHz | Front Cover | Time - 50:39 minutes | 474 MB
Rock-N-Roll | Label: RevOLa, Official Digital Download

Elvis Aaron Presley (January 8, 1935 – August 16, 1977), also known simply as Elvis, was an American singer, musician and actor. He is regarded as one of the most significant cultural icons of the 20th century and is often referred to as the "King of Rock and Roll". His energized interpretations of songs and sexually provocative performance style, combined with a singularly potent mix of influences across color lines during a transformative era in race relations, led him to both great success and initial controversy.

Presley was born in Tupelo, Mississippi, and relocated to Memphis, Tennessee with his family when he was 13 years old. His music career began there in 1954, recording at Sun Records with producer Sam Phillips, who wanted to bring the sound of African-American music to a wider audience. Presley, on rhythm acoustic guitar, and accompanied by lead guitarist Scotty Moore and bassist Bill Black, was a pioneer of rockabilly, an uptempo, backbeat-driven fusion of country music and rhythm and blues. In 1955, drummer D. J. Fontana joined to complete the lineup of Presley's classic quartet and RCA Victor acquired his contract in a deal arranged by Colonel Tom Parker, who would manage him for more than two decades. Presley's first RCA single, "Heartbreak Hotel", was released in January 1956 and became a number-one hit in the United States. With a series of successful network television appearances and chart-topping records, he became the leading figure of the newly popular sound of rock and roll.

In November 1956, Presley made his film debut in Love Me Tender. Drafted into military service in 1958, Presley relaunched his recording career two years later with some of his most commercially successful work. He held few concerts, however, and guided by Parker, proceeded to devote much of the 1960s to making Hollywood films and soundtrack albums, most of them critically derided. In 1968, following a seven-year break from live performances, he returned to the stage in the acclaimed television comeback special Elvis, which led to an extended Las Vegas concert residency and a string of highly profitable tours. In 1973, Presley gave the first concert by a solo artist to be broadcast around the world, Aloha from Hawaii. Years of prescription drug abuse severely compromised his health, and he died suddenly in 1977 at his Graceland estate at the age of 42.

TRACKLIST

1. Elvis Presley - Heartbreak Hotel (Live Remastered)
2. Elvis Presley - Long Tall Sally (Live Remastered)
3. Elvis Presley - I Was the One (Live Remastered)
4. Elvis Presley - Money Honey (Live Remastered)
5. Elvis Presley - I Got A Woman (Live Remastered)
6. Elvis Presley - Blue Suede Shoes (Live Remastered)
7. Elvis Presley - Hound Dog (Live Remastered)
8. Elvis Presley - Baby Let's Play House (Live Remastered)
9. Elvis Presley - Maybellene (Live Remastered)
10. Elvis Presley - That's All Right (Live Remastered)
11. Elvis Presley - Blue Moon Of Kentucky (Live Remastered)
12. Elvis Presley - Good Rockin' Tonight (Live Remastered)
13. Elvis Presley - Tweedle Dee (Live Remastered)
14. Elvis Presley - Spanish Eyes (Live Remastered)
15. Elvis Presley - Baby What You Want Me To Do (Live Remastered)
16. Elvis Presley - I'm So Lonesome I Could Cry (Live Remastered)
17. Elvis Presley - See See Rider (Live Remastered)
18. Elvis Presley - That's All Right (Version 2, Live Remastered)
19. Elvis Presley - Your Life Has Just Begun (Live Remastered)
20. Elvis Presley - Teardrops (Live Remastered)

foobar2000 1.6.2 / Dynamic Range Meter 1.1.1
log date: 2021-04-04 07:44:15

––––––––––––––––––––––––––––––––––––––––
Analyzed: Elvis Presley / The King Of Western Bop! (The Original Louisiana Hayride Recordings)
––––––––––––––––––––––––––––––––––––––––

DR Peak RMS Duration Track
––––––––––––––––––––––––––––––––––––––––
DR6 -0.40 dB -9.43 dB 2:20 01-Heartbreak Hotel (Live Remastered)
DR6 -1.74 dB -9.37 dB 2:11 02-Long Tall Sally (Live Remastered)
DR7 -0.60 dB -10.46 dB 3:15 03-I Was the One (Live Remastered)
DR7 -0.60 dB -9.79 dB 2:24 04-Money Honey (Live Remastered)
DR6 -1.09 dB -9.54 dB 3:21 05-I Got A Woman (Live Remastered)
DR6 -0.35 dB -9.25 dB 3:42 06-Blue Suede Shoes (Live Remastered)
DR7 -0.76 dB -9.78 dB 3:01 07-Hound Dog (Live Remastered)
DR9 -0.26 dB -11.93 dB 3:13 08-Baby Let's Play House (Live Remastered)
DR10 -0.32 dB -12.51 dB 2:46 09-Maybellene (Live Remastered)
DR9 -0.41 dB -11.42 dB 2:48 10-That's All Right (Live Remastered)
DR10 -0.93 dB -12.72 dB 2:02 11-Blue Moon Of Kentucky (Live Remastered)
DR9 -0.93 dB -12.16 dB 2:03 12-Good Rockin' Tonight (Live Remastered)
DR9 -1.02 dB -12.90 dB 2:18 13-Tweedle Dee (Live Remastered)
DR9 -2.35 dB -15.50 dB 4:31 14-Spanish Eyes (Live Remastered)
DR10 -0.60 dB -12.54 dB 2:31 15-Baby What You Want Me To Do (Live Remastered)
DR10 -2.30 dB -15.39 dB 1:42 16-I'm So Lonesome I Could Cry (Live Remastered)
DR9 -3.57 dB -15.70 dB 0:58 17-See See Rider (Live Remastered)
DR8 -3.24 dB -13.96 dB 1:20 18-That's All Right (Version 2, Live Remastered)
DR12 -5.51 dB -23.14 dB 2:25 19-Your Life Has Just Begun (Live Remastered)
DR12 -3.73 dB -19.58 dB 1:59 20-Teardrops (Live Remastered)
––––––––––––––––––––––––––––––––––––––––

Number of tracks: 20
Official DR value: DR8

Samplerate: 96000 Hz
Channels: 2
Bits per sample: 24
Bitrate: 1299 kbps
Codec: FLAC
================================================================================



Thanks to the Original customer.