Subcategories

Emmanuelle Bertrand - Saint-Saëns: Cello Concerto No. 1 - Cello Sonatas Nos. 2 & 3 (2017) [Official Digital Download 24/96]

Posted By: SERTiL
Emmanuelle Bertrand - Saint-Saëns: Cello Concerto No. 1 - Cello Sonatas Nos. 2 & 3 (2017) [Official Digital Download 24/96]

Emmanuelle Bertrand - Saint-Saëns: Cello Concerto No. 1 - Cello Sonatas Nos. 2 & 3 (2017)
FLAC (tracks) 24-bit/96 kHz | Time - 66:49 minutes | 1.15 GB
Studio Master, Official Digital Download | Artwork: Digital booklet

"That’s it done at last, this blasted sonata! Will it please or not? That is the question." So wrote Saint-Saëns, not without humour, of his second ‘quadruped’ for cello and piano. He adored the cello, as is shown by much more than the famous 'Swan'. He wrote three sonatas for it, but unfortunately the last two movements of the Third Sonata have been lost and what is left survives only in manuscript. Emmanuelle Bertrand and Pascal Amoyel play it here with emotion and total respect. The Concerto also included here is today one of the ‘musts’ of the concertante repertory for cello.

TRACKLIST

Camille Saint-Saëns (1835-1921)

01. Cello Concerto No. 1 in A Minor, Op. 33: I. Allegro non troppo
02. Cello Concerto No. 1 in A Minor, Op. 33: II. Allegretto con moto
03. Cello Concerto No. 1 in A Minor, Op. 33: III. Molto allegro
04. Sonata for Cello and Piano No. 2 in F Major, Op. 123: I. Maestoso, largamente
05. Sonata for Cello and Piano No. 2 in F Major, Op. 123: II. Scherzo con Variazioni. Allegro animato
06. Sonata for Cello and Piano No. 2 in F Major, Op. 123: III. Romanza. Poco adagio-Agitato
07. Sonata for Cello and Piano No. 2 in F Major, Op. 123: IV. Allegro non troppo grazioso
08. Sonata for Cello and Piano No. 3 in D Major, Op. Posth (Unfinished): I. Allegro animato
09. Sonata for Cello and Piano No. 3 in D Major, Op. Posth (Unfinished): II. Andante sostenuto

PERSONNEL
Emmanuelle Bertrand, cello
Pascal Amoyel, piano (on tracks 4-9)
Luzerner Sinfonieorchester (on tracks 1-3)
James Gaffigan, conductor

foobar2000 1.3.7 / Dynamic Range Meter 1.1.1
log date: 2017-09-14 14:05:14

––––––––––––––––––––––––––––––––––––––––
Analyzed: Emmanuelle Bertrand and Pascal Amoyel / Saint-Saëns: Cello Concerto No. 1 - Cello Sonatas Nos. 2 & 3 (1-6)
Emmanuelle Bertrand, James Gaffigan and Luzerner Sinfonieorchester / Saint-Saëns: Cello Concerto No. 1 - Cello Sonatas Nos. 2 & 3 (7)
Emmanuelle Bertrand, Luzerner Sinfonieorchester and James Gaffigan / Saint-Saëns: Cello Concerto No. 1 - Cello Sonatas Nos. 2 & 3 (8-9)
––––––––––––––––––––––––––––––––––––––––

DR Peak RMS Duration Track
––––––––––––––––––––––––––––––––––––––––
DR13 -4.44 dB -23.08 dB 8:53 04-Sonata for Cello and Piano No. 2 in F Major, Op. 123: I. Maestoso, largamente
DR14 -4.84 dB -24.08 dB 8:46 05-Sonata for Cello and Piano No. 2 in F Major, Op. 123: II. Scherzo con Variazioni. Allegro animato
DR12 -8.53 dB -26.58 dB 8:21 06-Sonata for Cello and Piano No. 2 in F Major, Op. 123: III. Romanza. Poco adagio-Agitato
DR14 -3.15 dB -22.09 dB 6:48 07-Sonata for Cello and Piano No. 2 in F Major, Op. 123: IV. Allegro non troppo grazioso
DR14 -3.63 dB -23.66 dB 9:28 08-Sonata for Cello and Piano No. 3 in D Major, Op. Posth (Unfinished): I. Allegro animato
DR13 -12.69 dB -29.97 dB 4:58 09-Sonata for Cello and Piano No. 3 in D Major, Op. Posth (Unfinished): II. Andante sostenuto
DR14 -0.50 dB -20.62 dB 7:49 03-Cello Concerto No. 1 in A Minor, Op. 33: III. Molto allegro
DR15 -0.50 dB -21.67 dB 5:42 01-Cello Concerto No. 1 in A Minor, Op. 33: I. Allegro non troppo
DR17 -0.50 dB -24.25 dB 6:10 02-Cello Concerto No. 1 in A Minor, Op. 33: II. Allegretto con moto
––––––––––––––––––––––––––––––––––––––––

Number of tracks: 9
Official DR value: DR14

Samplerate: 96000 Hz
Channels: 2
Bits per sample: 24
Bitrate: 2755 kbps
Codec: FLAC
================================================================================


Thanks to the Original customer.