Eric Bibb - Lead Belly's Gold, Live At The Sunset... And More (2015) [Official Digital Download]

Posted By: Pisulik
Eric Bibb - Lead Belly's Gold, Live At The Sunset... And More (2015) [Official Digital Download]

Eric Bibb - Lead Belly's Gold, Live At The Sunset… And More (2015)
FLAC (tracks) 24-bit/48 kHz | Time - 70:12 minutes | 831 MB
Studio Master, Official Digital Download | Artwork: Digital Booklet

Discovered in Louisiana’s infamous Angola Prison Farm back in 1933, Huddie Ledbetter, better known as Lead Belly, went on to become the most famous Black folk and blues singer ever. His repertoire has been covered by artists as diverse as Nirvana, Frank Sinatra, the Beach Boys, the Red Hot Chili Peppers, Tom Waits and Bob Dylan. Born in the Deep South in the late 1880s, he was a living link between the end of slavery and disenfranchised African-Americans during the first part of the 20th Century. He bridged the gap between the false hopes engendered by Lincoln’s Emancipation Proclamation and the despair of Segregation. Lead Belly created the folk boom that excited and illuminated the white New York literati as well as familiarising Europeans with the blues.

Now blues man Eric Bibb and harmonica player Jean-Jacques Milteau are to celebrate Lead Belly’s rich musical heritage with an album of live songs such as ‘Goodnight Irene,’ ‘Midnight Special’ the militant ‘Bourgeois Blues’ as well as a number of compositions from both men. There will also be two studio cuts. Released this October ’A Tribute To Lead Belly’ will honour his legacy by showcasing the timelessness of the blues.

Tracklist:

01. Grey Goose (Live)
02. When That Train Comes Along / Swing Low, Swing Chariot (Live)
03. On A Monday (Live)
04. The House Of The Rising Sun (Live)
05. Midnight Special (Live)
06. Bring A Little Water, Sylvie (Live)
07. Where Did You Sleep Last Night (Live)
08. When I Get To Dallas (Live)
09. Pick A Bale Of Cotton (Live)
10. Good Night, Irene (Live)
11. Rock Island Line (Live)
12. Bourgeois Blues (Studio)
13. Chauffeur Blues (Studio)
14. Stewball (Studio)
15. Titanic (Studio)
16. Swimmin' In A River Of Songs (Studio)
17. Don't Ever Let Nobody Drag Your Spirit Down (Live) (Bonus Track)
18. Goin' Down Slow (Live) (Bonus Track)
19. I heard The Angels Singing (Live) (Bonus Track)

foobar2000 1.3.7 / Dynamic Range Meter 1.1.1
log date: 2018-04-04 08:32:44

––––––––––––––––––––––––––––––––––––––––
Analyzed: Eric Bibb / Lead Belly's Gold, Live At The Sunset… And More
––––––––––––––––––––––––––––––––––––––––

DR Peak RMS Duration Track
––––––––––––––––––––––––––––––––––––––––
DR12 -1.00 dB -15.05 dB 5:34 01-Grey Goose (Live)
DR13 -1.00 dB -17.80 dB 3:53 02-When That Train Comes Along Swing Low, Swing Chariot (Live)
DR13 -1.00 dB -15.58 dB 2:54 03-On A Monday (Live)
DR15 -1.00 dB -19.94 dB 3:29 04-The House Of The Rising Sun (Live)
DR9 -1.00 dB -11.65 dB 3:59 05-Midnight Special (Live)
DR13 -1.00 dB -16.48 dB 3:16 06-Bring A Little Water, Sylvie (Live)
DR12 -1.00 dB -15.70 dB 3:28 07-Where Did You Sleep Last Night (Live)
DR13 -1.00 dB -16.16 dB 1:41 08-When I Get To Dallas (Live)
DR12 -1.00 dB -15.60 dB 2:57 09-Pick A Bale Of Cotton (Live)
DR12 -1.00 dB -16.41 dB 3:38 10-Good Night, Irene (Live)
DR11 -1.00 dB -13.55 dB 3:50 11-Rock Island Line (Live)
DR12 -1.00 dB -14.96 dB 3:21 12-Bourgeois Blues (Studio)
DR11 -1.90 dB -14.04 dB 2:52 13-Chauffeur Blues (Studio)
DR12 -1.00 dB -14.50 dB 3:29 14-Stewball (Studio)
DR14 -1.00 dB -16.24 dB 3:04 15-Titanic (Studio)
DR10 -1.00 dB -12.82 dB 3:22 16-Swimmin' In A River Of Songs (Studio)
DR13 -1.00 dB -16.46 dB 4:40 17-Don't Ever Let Nobody Drag Your Spirit Down (Live) (Bonus Track)
DR12 -1.00 dB -15.04 dB 5:31 18-Goin' Down Slow (Live) (Bonus Track)
DR11 -1.00 dB -14.72 dB 5:22 19-I heard The Angels Singing (Live) (Bonus Track)
––––––––––––––––––––––––––––––––––––––––

Number of tracks: 19
Official DR value: DR12

Samplerate: 48000 Hz
Channels: 2
Bits per sample: 24
Bitrate: 1668 kbps
Codec: FLAC
================================================================================


All thanks go to the original releaser