Eric Bibb - Migration Blues (2017) [Official Digital Download]

Posted By: Pisulik
Eric Bibb - Migration Blues (2017) [Official Digital Download]

Eric Bibb - Migration Blues (2017)
FLAC (tracks) 24-bit/48 kHz | Time - 47:50 minutes | 541 MB
Studio Master, Official Digital Download | Artwork: Digital Booklet

With Migration Blues eric Bibb reminds us that if we look at the history of the world we discover that we all have migrants among our ancestors. Eric also draws a parallel between the former African American sharecroppers leavind the brutal segregation and economic misery of the rural South for the industrial cities of the North and the current migratory movement to Europe of the refugees from the war-torn countries of the Middle East and Africa World.

Migration Blues will certainly be considered one of Eric Bibb's major albums due to the high quality of the songwriting, the raw emotion delivered by Eric's voice, the richness of the orchestration (despite the sobriety) and the seriousness and topicality of its main theme.

Tracklist:

01. Refugee Moan
02. Delta Getaway
03. Diego’s Blues
04. Prayin’ For Shore
05. Migration Blues
06. Four Years, No Rain
07. We Had To Move
08. Masters Of War
09. Brotherly Love
10. La Vie C’est Comme Un Oignon
11. With A Dolla’ In My Pocket
12. This Land Is Your Land
13. Postcard From Booker
14. Blacktop
15. Mornin’ Train

Personnel:

Eric Bibb - vocals, guitar
JJ Milteau - harmonica
Michael Jerome Brown - guitar, fiddle, banjo
Olle Linder - drums
Big Daddy Wilson - backing vocals
Ulrika Bibb - backing vocals

foobar2000 1.3.7 / Dynamic Range Meter 1.1.1
log date: 2017-12-12 05:20:15

––––––––––––––––––––––––––––––––––––––––
Analyzed: Eric Bibb / Migration Blues
––––––––––––––––––––––––––––––––––––––––

DR Peak RMS Duration Track
––––––––––––––––––––––––––––––––––––––––
DR10 -0.10 dB -11.51 dB 3:06 01-Refugee Moan
DR9 -0.10 dB -11.74 dB 2:37 02-Delta Getaway
DR8 -0.10 dB -9.70 dB 3:42 03-Diego’s Blues
DR7 -0.10 dB -9.55 dB 4:03 04-Prayin’ For Shore
DR7 -0.10 dB -9.41 dB 3:07 05-Migration Blues
DR8 -0.10 dB -10.59 dB 2:36 06-Four Years, No Rain
DR9 -0.10 dB -10.58 dB 3:09 07-We Had To Move
DR9 -0.10 dB -10.98 dB 3:19 08-Masters Of War
DR9 -0.10 dB -11.09 dB 4:11 09-Brotherly Love
DR8 -0.10 dB -9.53 dB 2:38 10-La Vie C’est Comme Un Oignon
DR7 -0.10 dB -8.33 dB 3:51 11-With A Dolla’ In My Pocket
DR7 -0.10 dB -8.57 dB 3:16 12-This Land Is Your Land
DR8 -0.10 dB -10.06 dB 0:51 13-Postcard From Booker
DR8 -0.10 dB -9.96 dB 3:56 14-Blacktop
DR9 -0.10 dB -11.18 dB 3:35 15-Mornin’ Train
––––––––––––––––––––––––––––––––––––––––

Number of tracks: 15
Official DR value: DR8

Samplerate: 48000 Hz
Channels: 2
Bits per sample: 24
Bitrate: 1536 kbps
Codec: FLAC
================================================================================


All thanks go to the original releaser