Eric Clapton - Eric Clapton's Crossroads Guitar Festival 2019 (Live) (2020) [Official Digital Download 24/96]

Posted By: pyatak
Eric Clapton - Eric Clapton's Crossroads Guitar Festival 2019 (Live) (2020) [Official Digital Download 24/96]

Eric Clapton - Eric Clapton's Crossroads Guitar Festival 2019 (Live) (2020) [Official Digital Download 24/96]
FLAC (tracks) 24-bit/96 kHz | Front Cover | Time - 03:43:43 minutes | 4,88 GB
Blues Rock, Rock | Label: Rhino, Official Digital Download

Eric Clapton, one of the world’s pre-eminent blues/rock guitarists, once again summoned an all-star team of six-string heroes for his fifth Crossroads Guitar Festival in 2019. Held at the American Airlines Center in Dallas, Texas, the two-day concert event raised funds for the Crossroads Centre in Antigua, the chemical dependency treatment and education facility that Clapton founded in 1998.

Following a six-year hiatus, the festival returned reenergised with outstanding performances by Clapton, James Bay, Jeff Beck, Doyle Bramhall II, Gary Clark Jr., Robert Cray, Sheryl Crow, Andy Fairweather Low, Peter Frampton, Vince Gill, Buddy Guy, Sonny Landreth, Lianne La Havas, Los Lobos, John Mayer, Keb’ Mo’, Bonnie Raitt, Robert Randolph, Tedeschi Trucks Band, Jimmie Vaughan and more.

Throughout the show, Clapton shared the stage with others to perform some of his best-known songs, including “Layla” with John Mayer, plus acoustic versions of “Wonderful Tonight” and “Lay Down Sally” with Andy Fairweather Low. Clapton also paid tribute to his late friend George Harrison with a searing rendition of “While My Guitar Gently Weeps” with Peter Frampton.

The Crossroads’ lineup offered an impressive mix of performers, with legends like Bonnie Raitt, James Burton, Robert Cray, and Jeff Beck (whose outstanding cover of The Beach Boys’ “Caroline, No” was a festival high point); contemporary stars Gary Clark Jr., Robert Randolph and Sheryl Crow; as well as rising talents The Marcus King Band, Tom Misch, and Lianne La Havas.

TRACKLIST

01. Eric Clapton - Native Stepson (Live)
02. Eric Clapton - Wonderful Tonight (Live)
03. Eric Clapton - Lay Down Sally (Live)
04. Eric Clapton - Million Miles (Live)
05. Eric Clapton - Son's Gonna Rise (with Gary Clark Jr.)
06. Eric Clapton - Lait / De Ushuaia a la Quiaca (Live)
07. Eric Clapton - I Wanna Be Your Dog (with Tedeschi Trucks Band) (Live)
08. Eric Clapton - That's How Strong My Love Is (with Tedeschi Trucks Band) (Live)
09. Eric Clapton - Going Going Gone (with Tedeschi Trucks Band) (Live)
10. Eric Clapton - Lift Off (Live)
11. Eric Clapton - Cognac (Live)
12. Eric Clapton - Everything Is Broken (Live)
13. Eric Clapton - Every Day Is A Winding Road (with James Bay) (Live)
14. Eric Clapton - Retrato (Live)
15. Eric Clapton - B-Side (with Pedro Martins) (Live)
16. Eric Clapton - Baby, Please Come Home (with Bonnie Raitt) (Live)
17. Eric Clapton - I Shiver (Live)
18. Eric Clapton - How Long (Live)
19. Eric Clapton - Goodbye Carolina (Live)
20. Eric Clapton - While My Guitar Gently Weeps (with Eric Clapton) (Live)
21. Eric Clapton - Space For The Papa (Live)
22. Eric Clapton - Big Block (Live)
23. Eric Clapton - Caroline, No (Live)
24. Eric Clapton - Cut Em Loose (Live)
25. Eric Clapton - Hold Back The River (Live)
26. Eric Clapton - When We Were On Fire (Live)
27. Eric Clapton - Mas Y Mas (Live)
28. Eric Clapton - Am I Wrong? (Live)
29. Eric Clapton - Slow Dancing In A Burning Room (Live)
30. Eric Clapton - How Blue Can You Get? (Live)
31. Eric Clapton - Shame (Live)
32. Eric Clapton - Is Your Love Big Enough (Live)
33. Eric Clapton - I Say A Little Prayer (Live)
34. Eric Clapton - Feed The Babies (Live)
35. Eric Clapton - I Got My Eyes On You (Locked & Loaded) (Live)
36. Eric Clapton - Pearl Cadillac (Live)
37. Eric Clapton - Tonight The Bottle Let Me Down (with Albert Lee & Jerry Douglas) (Live)
38. Eric Clapton - Tulsa Time (with Bradley Walker, Albert Lee & Jerry Douglas) (Live)
39. Eric Clapton - Drifting Too Far From The Shore (with Vince Gill, Albert Lee & Jerry Douglas) (Live)
40. Eric Clapton - Badge (Live)
41. Eric Clapton - Layla (with John Mayer & Doyle Bramhall II) (Live)
42. Eric Clapton - Purple Rain (Live)
43. Eric Clapton - High Time We Went (Live)

foobar2000 1.6.2 / Dynamic Range Meter 1.1.1
log date: 2020-11-20 04:26:04

––––––––––––––––––––––––––––––––––––––––
Analyzed: Eric Clapton / Eric Clapton's Crossroads Guitar Festival 2019 (Live) (Live)
––––––––––––––––––––––––––––––––––––––––

DR Peak RMS Duration Track
––––––––––––––––––––––––––––––––––––––––
DR6 -0.10 dB -7.36 dB 5:10 01-Native Stepson (Live)
DR9 -0.10 dB -10.58 dB 4:20 02-Wonderful Tonight (Live)
DR7 -0.10 dB -8.22 dB 4:56 03-Lay Down Sally (Live)
DR7 -0.10 dB -9.27 dB 6:16 04-Million Miles (Live)
DR8 -0.10 dB -9.08 dB 5:05 05-Son's Gonna Rise (with Gary Clark Jr.)
DR10 0.00 dB -12.19 dB 4:31 06-Lait / De Ushuaia a la Quiaca (Live)
DR8 -0.10 dB -8.52 dB 4:11 07-I Wanna Be Your Dog (with Tedeschi Trucks Band) (Live)
DR8 -0.10 dB -9.20 dB 5:16 08-That's How Strong My Love Is (with Tedeschi Trucks Band) (Live)
DR7 -0.10 dB -8.65 dB 5:38 09-Going Going Gone (with Tedeschi Trucks Band) (Live)
DR6 -0.10 dB -8.21 dB 4:34 10-Lift Off (Live)
DR6 -0.10 dB -7.69 dB 4:21 11-Cognac (Live)
DR6 0.00 dB -6.84 dB 4:08 12-Everything Is Broken (Live)
DR5 -0.10 dB -6.47 dB 7:30 13-Every Day Is A Winding Road (with James Bay) (Live)
DR9 -0.10 dB -11.00 dB 3:51 14-Retrato (Live)
DR7 -0.10 dB -8.83 dB 6:04 15-B-Side (with Pedro Martins) (Live)
DR9 -0.10 dB -9.67 dB 3:56 16-Baby, Please Come Home (with Bonnie Raitt) (Live)
DR8 -0.10 dB -9.23 dB 5:55 17-I Shiver (Live)
DR9 -0.10 dB -10.54 dB 4:01 18-How Long (Live)
DR8 -0.10 dB -10.26 dB 4:21 19-Goodbye Carolina (Live)
DR8 0.00 dB -9.22 dB 7:36 20-While My Guitar Gently Weeps (with Eric Clapton) (Live)
DR7 -0.10 dB -8.56 dB 2:11 21-Space For The Papa (Live)
DR6 -0.10 dB -7.47 dB 5:02 22-Big Block (Live)
DR10 -0.10 dB -11.94 dB 2:36 23-Caroline, No (Live)
DR7 -0.10 dB -8.24 dB 4:38 24-Cut Em Loose (Live)
DR7 -0.10 dB -9.07 dB 6:04 25-Hold Back The River (Live)
DR8 -0.10 dB -10.07 dB 8:02 26-When We Were On Fire (Live)
DR9 -0.10 dB -9.60 dB 5:11 27-Mas Y Mas (Live)
DR10 -0.10 dB -11.97 dB 3:05 28-Am I Wrong? (Live)
DR10 0.00 dB -12.21 dB 4:01 29-Slow Dancing In A Burning Room (Live)
DR6 -0.10 dB -7.95 dB 5:58 30-How Blue Can You Get? (Live)
DR8 -0.10 dB -9.19 dB 7:16 31-Shame (Live)
DR7 -0.10 dB -10.06 dB 3:11 32-Is Your Love Big Enough (Live)
DR10 -0.06 dB -13.72 dB 3:08 33-I Say A Little Prayer (Live)
DR7 -0.10 dB -8.55 dB 4:33 34-Feed The Babies (Live)
DR7 -0.10 dB -9.67 dB 6:44 35-I Got My Eyes On You (Locked & Loaded) (Live)
DR8 -0.10 dB -10.35 dB 4:41 36-Pearl Cadillac (Live)
DR7 -0.10 dB -8.01 dB 3:16 37-Tonight The Bottle Let Me Down (with Albert Lee & Jerry Douglas) (Live)
DR8 0.00 dB -8.68 dB 4:07 38-Tulsa Time (with Bradley Walker, Albert Lee & Jerry Douglas) (Live)
DR9 -0.10 dB -11.37 dB 4:18 39-Drifting Too Far From The Shore (with Vince Gill, Albert Lee & Jerry Douglas) (Live)
DR7 -0.10 dB -8.21 dB 6:39 40-Badge (Live)
DR8 -0.10 dB -9.25 dB 8:09 41-Layla (with John Mayer & Doyle Bramhall II) (Live)
DR8 -0.10 dB -9.28 dB 7:00 42-Purple Rain (Live)
DR8 -0.10 dB -9.10 dB 12:35 43-High Time We Went (Live)
––––––––––––––––––––––––––––––––––––––––

Number of tracks: 43
Official DR value: DR8

Samplerate: 96000 Hz
Channels: 2
Bits per sample: 24
Bitrate: 3387 kbps
Codec: FLAC
================================================================================



Thanks to the Original customer.