Erroll Garner - Up In Errolls Room (1968/2020) [Official Digital Download 24/192]

Posted By: SERTiL
Erroll Garner - Up In Errolls Room (1968/2020) [Official Digital Download 24/192]

Erroll Garner - Up In Errolls Room (2020)
FLAC (tracks) 24-bit/192 kHz | Time - 46:47 minutes | 1.50 GB
Studio Master, Official Digital Download | Artwork: Front Cover

Remastered reissue of Erroll Garner's 1968 album 'Up in Erroll's Room', which is appearing here on CD for the first time.

Over the course of two sessions in November 1967, Erroll Garner and his band recorded enough material for a handful of albums. What makes this collection truly unique is the addition of a brass section, expertly orchestrated over a selection of Garner's improvised arrangements. This style of collaboration was groundbreaking for the era and helps to make this one of the most musically thrilling of all Garner's albums.

The Octave Remastered Series represents the heart of Erroll Garner's recorded catalog. Spanning 12 albums recorded and released between 1959 and 1976, this collection of music is among the most important in the history of jazz. It represents an artist in his prime, with full creative and commercial control of his output following his break with Columbia Records. All of these albums were owned by Garner's Octave Records and licensed for release on a variety of iconic labels, including MGM, ABC, Philips, Mercury, Reprise, MPS, and more.

Tracklist:
1. Watermelon Man (4:11)
2. It's The Talk Of The Town (4:50)
3. Groovin' High (3:55)
4. The Girl From Ipanema (4:46)
5. The Coffee Song (They've Got An Awful Lot Of Coffee In Brazil) (4:03)
6. Cheek To Cheek (4:28)
7. Up In Errol's Room (5:24)
8. I've Got A Lot Of Livin' To Do (3:43)
9. All The Things You Are (2:52)
10. I Got Rhythm (4:02)
11. True Blue (4:38)

foobar2000 1.3.7 / Dynamic Range Meter 1.1.1
log date: 2020-02-11 23:17:19

––––––––––––––––––––––––––––––––––––––––
Analyzed: Erroll Garner / Up in Erroll's Room (Octave Remastered Series)
––––––––––––––––––––––––––––––––––––––––

DR Peak RMS Duration Track
––––––––––––––––––––––––––––––––––––––––
DR10 -0.46 dB -13.14 dB 4:11 01-Watermelon Man (Remastered 2020)
DR11 -0.42 dB -14.91 dB 4:50 02-It's the Talk of the Town (Remastered 2020)
DR11 -0.47 dB -13.82 dB 3:55 03-Groovin' High (Remastered 2020)
DR11 -0.47 dB -13.42 dB 4:46 04-The Girl from Ipanema (Remastered 2020)
DR11 -0.48 dB -13.46 dB 4:03 05-The Coffee Song (They’ve Got an Awful Lot of Coffee in Brazil) (Remastered 2020)
DR9 -0.47 dB -11.75 dB 4:28 06-Cheek to Cheek (Remastered 2020)
DR11 -0.47 dB -13.79 dB 5:24 07-Up in Erroll's Room (Remastered 2020)
DR10 -0.37 dB -12.94 dB 3:43 08-I’ve Got a Lot of Livin’ to Do (Remastered 2020)
DR11 -0.44 dB -12.69 dB 2:52 09-All the Things You Are (Remastered 2020)
DR10 -0.45 dB -12.34 dB 4:02 10-I Got Rhythm (Remastered 2020)
DR13 -0.50 dB -16.16 dB 4:38 11-True Blues (Remastered 2020)
––––––––––––––––––––––––––––––––––––––––

Number of tracks: 11
Official DR value: DR11

Samplerate: 192000 Hz
Channels: 2
Bits per sample: 24
Bitrate: 4522 kbps
Codec: FLAC
================================================================================


Thanks to the Original customer.