Tags
Language
Tags

Erroll Garner - Symphony Hall Concert (1959/2021) [Official Digital Download 24/192]

Posted By: pyatak
Erroll Garner - Symphony Hall Concert (1959/2021) [Official Digital Download 24/192]

Erroll Garner - Symphony Hall Concert (1959/2021) [Official Digital Download 24/192]
FLAC (tracks) 24-bit/192 kHz | Front Cover | Time - 36:04 minutes | 1,2 gB
Jazz | Label: Mack Avenue Records, Official Digital Download

On January 17, 1959, jazz immortal Erroll Garner took the stage of Boston’s Symphony Hall for a historic performance to a sold-out crowd. Recorded 11 months prior to the Dreamstreet sessions, which heralded Garner’s return after a lengthy battle for control over his catalog, Symphony Hall Concert is a previously unreleased compilation capturing the unparalleled genius of Garner’s live performances at the beginning of one of the most defining years of his life.

TRACKLIST

01. Erroll Garner - A Foggy Day (In London Town) (Live)
02. Erroll Garner - But Not For Me (Live)
03. Erroll Garner - I Can't Get Started With You (Live)
04. Erroll Garner - Dreamy (Live)
05. Erroll Garner - Lover (Live)
06. Erroll Garner - Moments Delight (Live)
07. Erroll Garner - Bernie's Tune (Live)
08. Erroll Garner - Misty (Live)
09. Erroll Garner - Erroll's Theme (Live)

foobar2000 1.6.2 / Dynamic Range Meter 1.1.1
log date: 2021-09-16 17:52:18

––––––––––––––––––––––––––––––––––––––––
Analyzed: Erroll Garner / Symphony Hall Concert
––––––––––––––––––––––––––––––––––––––––

DR Peak RMS Duration Track
––––––––––––––––––––––––––––––––––––––––
DR8 -1.00 dB -11.56 dB 5:07 01-A Foggy Day (In London Town) (Live)
DR9 -1.00 dB -11.88 dB 3:45 02-But Not For Me (Live)
DR10 -1.00 dB -14.57 dB 4:45 03-I Can't Get Started With You (Live)
DR9 -1.00 dB -13.65 dB 3:23 04-Dreamy (Live)
DR7 -1.00 dB -11.16 dB 4:20 05-Lover (Live)
DR9 -1.00 dB -13.80 dB 5:06 06-Moments Delight (Live)
DR9 -1.00 dB -12.63 dB 3:37 07-Bernie's Tune (Live)
DR7 -1.00 dB -12.66 dB 4:21 08-Misty (Live)
DR10 -0.33 dB -13.48 dB 1:41 09-Erroll's Theme (Live)
––––––––––––––––––––––––––––––––––––––––

Number of tracks: 9
Official DR value: DR9

Samplerate: 192000 Hz
Channels: 2
Bits per sample: 24
Bitrate: 4676 kbps
Codec: FLAC
================================================================================



Thanks to the Original customer.